Browse Collections Artists Sources   Search Dates

Add Show    List Management    Help


Ratdog 11/17/06
Jannus Landing, St. Petersburg, FL
Comments Add Comment    Source Collectors    Add to Collection    Add to Want List    History
Source # 80258 Other Sources
Entered by Charlie Connor
Checksums md5 , ffp
Disc Counts 2 / 3
Media Size
Date Circulated
Date Added
11/25/2006
11/25/2006
Source Summary flac 16; Source: (FOB) Neumann SKM 184s > Lunatec V3 [(opti-mod) 44.1] > JB3 (16/44.1); Mic Config: 90 deg. (20 cm) Mics @ 11 feet:; Location: FOB, 20-25 feet from stage, DFC; Transfer: JB3 >CreativePlayCenter >CDWave> tracked into 3 .wav files>CDR>EAC (no errors)>CEP 2.0(files joined)>CDWave>TLH>FLAC16 level 6; Taper: Larry-FLDeadhead; Tracking, conversion & seeding to bt.etree.org by Alex Ford  
Source Information - Download Text | Download Zip
Ratdog
11/17/2006
Jannus Landing
St. Petersburg, FL

Source: (FOB) Neumann SKM 184s > Lunatec V3 [(opti-mod) 44.1] > JB3 (16/44.1)

Mic Config: 90 deg. (20 cm) Mics @ 11 feet

Location: FOB, 20-25 feet from stage, DFC

Taper: Larry-FLDeadhead

Transfer: JB3 >CreativePlayCenter >CDWave> tracked into 3 .wav files>CDR>EAC (no errors)>CEP 2.0(files joined)>CDWave>TLH>FLAC16.
Correct sector boundaries verified w/ Trader's Little Helper. Files encoded @ level 6.
Tracking, conversion & seeding to bt.etree.org by Alex Ford 11/25/2006.


Disc 01
Set I:

d1t01  Jam >
d1t02  Shakedown Street >
d1t03  Money For Gasoline >
d1t04  Queen Jane Approximately
d1t05  Josephine >
d1t06  Crazy Fingers >
d1t07  Brown-Eyed Women
d1t08  Shade Of Grey >
d1t09  Hell In A Bucket >
d1t10  Deal

Disc 02
Set II:

d2t01  crowd/tuning
d2t02  [email protected],
d2t03  Me and My [email protected],
d2t04  Masters Of [email protected] >
d2t05  Stuck Inside Of Mobile With The Memphis Blues [email protected] >
d2t06  Lady with A Fan >
d2t07  Terrapin Station >
d2t08  Stuff >
d3t01  Black Peter >
d3t02  At A Siding >
d3t03  Terrapin Flyer >
d3t04  China Cat Sunflower >
d3t05  I Know You Rider
d3t06  crowd
Encore:
d3t07  Ripple


Notes:

- @=acoustic
- Stuff - Jeff/Jay/Robin/Kenny > Jay/Jeff > Jay/Jeff/Robin/MK
- Previous "Memphis Blues" 2006-03-20 [59 shows]



Shntool Output:

    length     expanded size   cdr  WAVE problems filename
     2:53.26       30578396    ---   --   -----   rd2006-11-17d1t01.wav
    13:05.48      138586940    ---   --   -----   rd2006-11-17d1t02.wav
     6:13.50       65914844    ---   --   -----   rd2006-11-17d1t03.wav
     7:56.50       84084044    ---   --   -----   rd2006-11-17d1t04.wav
     9:25.18       99708380    ---   --   -----   rd2006-11-17d1t05.wav
    10:54.44      115469132    ---   --   -----   rd2006-11-17d1t06.wav
     5:57.37       63061868    ---   --   -----   rd2006-11-17d1t07.wav
     7:25.67       78655628    ---   --   -----   rd2006-11-17d1t08.wav
     9:21.45       99066284    ---   --   -----   rd2006-11-17d1t09.wav
     6:43.33       71166860    ---   --   -----   rd2006-11-17d1t10.wav
     0:51.19        9041132    ---   --   -----   rd2006-11-17d2t01.wav
     3:50.57       40706108    ---   --   -----   rd2006-11-17d2t02.wav
     4:38.28       49105100    ---   --   -----   rd2006-11-17d2t03.wav
     6:23.03       67568300    ---   --   -----   rd2006-11-17d2t04.wav
     9:26.70      100007084    ---   --   -----   rd2006-11-17d2t05.wav
     9:54.23      104835740    ---   --   -----   rd2006-11-17d2t06.wav
     4:16.10       45181964    ---   --   -----   rd2006-11-17d2t07.wav
     8:54.42       94296428    ---   --   -----   rd2006-11-17d2t08.wav
    12:32.43      132753980    ---   --   -----   rd2006-11-17d3t01.wav
     2:34.42       27264428    ---   --   -----   rd2006-11-17d3t02.wav
     5:29.73       58207340    ---   --   -----   rd2006-11-17d3t03.wav
     6:04.52       64331948    ---   --   -----   rd2006-11-17d3t04.wav
     7:55.51       83910104    ---   --   -----   rd2006-11-17d3t05.wav
     1:35.64       16908572    ---   --   -----   rd2006-11-17d3t06.wav
     5:35.71       59261036    ---   --   -----   rd2006-11-17d3t07.wav
   170:02.16     1799671640 B                     (totals for 25 files, 1.0000 overall compression ratio)
Show Checksums
md5
295235f8df56dff7dfbcf12b27c95db3 *rd2006-11-17d1t01.flac
f8dc89c0ad03a1d44d58f558b068ed35 *rd2006-11-17d1t02.flac
e5381013383dc0f9ec09ada9050fd6d1 *rd2006-11-17d1t03.flac
68860cc9f3bcd9bb8db7e4452608871e *rd2006-11-17d1t04.flac
d62d974392ae05a0f087956c9b3c33df *rd2006-11-17d1t05.flac
fec69c5900981dea163054a0dadc72fd *rd2006-11-17d1t06.flac
c0dde93240ad48d3a72c375415be021e *rd2006-11-17d1t07.flac
7dba5494ad04ce241c81bd27ce5de993 *rd2006-11-17d1t08.flac
b12f279b518e775deeee8bb701204a3c *rd2006-11-17d1t09.flac
e5a65c40cbc17376e2469cec40c338b8 *rd2006-11-17d1t10.flac
d859315644f6abd5e9944200c111bdeb *rd2006-11-17d2t01.flac
121fff6d1b77a13f76c885afa4e072b5 *rd2006-11-17d2t02.flac
1b593020801d7ea85d89aad10d2fff55 *rd2006-11-17d2t03.flac
dc117e7548165c4a682071d4209a9165 *rd2006-11-17d2t04.flac
7f03c78882e15eacdd4d8a8e0918e2c5 *rd2006-11-17d2t05.flac
75d76232b7c11b68aac6747d274dedd7 *rd2006-11-17d2t06.flac
75c0aacf2ba66f556f98f696af853ce1 *rd2006-11-17d2t07.flac
4614ca8cac60441a5dbff736754b069e *rd2006-11-17d2t08.flac
33faf06ab20a322777098b0678ed655f *rd2006-11-17d3t01.flac
2018112c08f04cfe173d1b49577282e3 *rd2006-11-17d3t02.flac
485abd528a2a8cd0596a57afba45c307 *rd2006-11-17d3t03.flac
182cbfeb0d429f26f734e3bda70e1962 *rd2006-11-17d3t04.flac
bc9c89fd0ea74da84e7aa520825c593f *rd2006-11-17d3t05.flac
a1aeb14eca112e770e981e8ed34b971c *rd2006-11-17d3t06.flac
d180bf0f0eca9eecf894791c1854be8c *rd2006-11-17d3t07.flac
ffp
rd2006-11-17d1t01.flac:73ff140ab1f2329a2a5c3f91dbe4b85d
rd2006-11-17d1t02.flac:28779f937f311a874ca043c7ae33ca00
rd2006-11-17d1t03.flac:b53954d52912f053d0bfd00ccb028996
rd2006-11-17d1t04.flac:2f57189107d5bcb6861aea4a2a4da00e
rd2006-11-17d1t05.flac:51f4a9fe4d682cf54f8eb94b1b827e78
rd2006-11-17d1t06.flac:f34f226c3c092e9cac4a4604ae162581
rd2006-11-17d1t07.flac:b10cdf15d757992a8fd58f5d41b0bb94
rd2006-11-17d1t08.flac:c895284fe8880abfc51c37644d2154ca
rd2006-11-17d1t09.flac:c7e80226a734ee37db0a50dfba0d67c8
rd2006-11-17d1t10.flac:fdb615c3984157d6a201feb282a25aa3
rd2006-11-17d2t01.flac:2d0aa793c65acebec9e2318c930e96d7
rd2006-11-17d2t02.flac:dc348d1543fc8c3f64f94721a14c4b2a
rd2006-11-17d2t03.flac:29839419279ac392a0c8a7b4827e84d5
rd2006-11-17d2t04.flac:d0ddf4028641691e276e1d5ecc2424da
rd2006-11-17d2t05.flac:070f4002b7698e3922e7043974ca5040
rd2006-11-17d2t06.flac:398ad308d6fe413d1980cdf3c8ba3087
rd2006-11-17d2t07.flac:17ff59699951f792414c638bb031123b
rd2006-11-17d2t08.flac:65965443cb408211cfc11fb24c9ca452
rd2006-11-17d3t01.flac:27409c42b7a7c46f607addea8e60b15a
rd2006-11-17d3t02.flac:a456de3ecbecc0b0ee1594f642ca8359
rd2006-11-17d3t03.flac:65233457f6db07b58898e7051de13ec3
rd2006-11-17d3t04.flac:66064b2b3f1429cc129fb24a864d388f
rd2006-11-17d3t05.flac:c217ea3b8f83d5efc11b2c59deb55d6e
rd2006-11-17d3t06.flac:cf4de9487bf574cbeb0be550e6a0b5b6
rd2006-11-17d3t07.flac:529227a3547883d6ae8d9129417eea1c

Comments
Add Comment
Other Sources (comments)
flac 16; Source:... (0)
Date User Comment