Browse Collections Artists Sources   Search Dates

Add Show    List Management    Help


Ratdog 11/18/06
Mizner Park Amphitheatre, Boca Raton, FL
Comments Add Comment    Source Collectors    Add to Collection    Add to Want List    History
Source # 80343 Other Sources
Entered by ziko
Checksums md5 , ffp
Disc Counts 2 / 3
Media Size
Date Circulated
Date Added
11/28/2006
11/28/2006
Source Summary flac 16; Source: Neumann TLM 170s (hyper cardoids) > 744t > Lunatec V3 (opti-mod) > JB3 (16/44.1) Recorded by Larry-FLdeadhead (Thanks to SickRick for the analog out of the 744.); Transfer: JB3 > Creative PlayCenter > CDWave > CDR > EAC (no errors) > TLH > FLAC16. Correct sector boundaries verified w/ Trader's Little Helper. Files encoded @ level 6. EAC through FLAC16 and upload to bt.etree.org by Alex Ford  
  Archive
Source Information - Download Text | Download Zip
Ratdog
11/18/2006
Mizner Park Amphitheatre,
Boca Raton, FL

Source: Neumann TLM 170s (hyper cardoids)  > 744t > Lunatec V3 (opti-mod) > JB3 (16/44.1)

Mic Config: X-Y 90 deg.

Location: BOB, 15 feet high, DFC

Recorded by Larry-FLdeadhead (Thanks to SickRick for the analog out of the 744.)
********* A Sick Rick/FLDeadhead Production **********

Transfer: JB3 > Creative PlayCenter > CDWave > CDR > EAC (no errors) > TLH > FLAC16.
Correct sector boundaries verified w/ Trader's Little Helper. Files encoded @ level 6.
EAC through FLAC16 and upload to bt.etree.org by Alex Ford 11/28/2006.


Set I:

d1t01 Jam >
d1t02 Help On The Way > Slipknot! >
d1t03 Minglewood Blues,
d1t04 She Belongs To Me,
d1t05 Jus' Like Mama Said >
d1t06 Tomorrow Never Knows >
d1t07 Even So >
d1t08 October Queen > The Deep End >
d2t01 She Says >
d2t02 Liberty

Set II:
d2t03 crowd
d2t04 Lazy River [email protected],
d2t05 Victim Or The [email protected],
d2t06 Friend Of The [email protected],
d2t07 Jam >
d2t08 St. Stephen > William Tell Bridge >
d2t09 William Tell Bridge > The Eleven >
d2t10 Stuff >
d3t01 Stuff > The Eleven
d3t02 Dear Prudence >
d3t03 Slipknot! > Franklin's Tower,
d3t04 One More Saturday Night
Encore:
d3t05 U.S. Blues



Notes:

- Sick Rick sent a -9db signal (overall) from 744t to V3. V3 used for A/D conversion only.



Shntool Output:

    length     expanded size   cdr  WAVE problems filename
     4:14.35       44887964    ---   --   -----   rd2006-11-18d1t01.wav
    10:56.46      115826636    ---   --   -----   rd2006-11-18d1t02.wav
     9:36.21      101655836    ---   --   -----   rd2006-11-18d1t03.wav
     6:32.12       69177068    ---   --   -----   rd2006-11-18d1t04.wav
     9:33.20      101124284    ---   --   -----   rd2006-11-18d1t05.wav
     6:27.12       68295068    ---   --   -----   rd2006-11-18d1t06.wav
    10:53.50      115306844    ---   --   -----   rd2006-11-18d1t07.wav
    13:30.21      142933436    ---   --   -----   rd2006-11-18d1t08.wav
     7:30.46       79488236    ---   --   -----   rd2006-11-18d2t01.wav
     7:27.59       78989612    ---   --   -----   rd2006-11-18d2t02.wav
     0:30.26        5353196    ---   --   -----   rd2006-11-18d2t03.wav
     8:55.25       94432844    ---   --   -----   rd2006-11-18d2t04.wav
     9:49.54      104026652    ---   --   -----   rd2006-11-18d2t05.wav
     5:56.38       62887820    ---   --   -----   rd2006-11-18d2t06.wav
     1:13.47       12987788    ---   --   -----   rd2006-11-18d2t07.wav
    13:19.29      141011852    ---   --   -----   rd2006-11-18d2t08.wav
     5:59.03       63334700    ---   --   -----   rd2006-11-18d2t09.wav
     8:57.39       94818572    ---   --   -----   rd2006-11-18d2t10.wav
     4:12.12       44481068    ---   --   -----   rd2006-11-18d3t01.wav
     9:33.41      101173676    ---   --   -----   rd2006-11-18d3t02.wav
    12:18.73      130354940    ---   --   -----   rd2006-11-18d3t03.wav
     7:39.01       80969996    ---   --   -----   rd2006-11-18d3t04.wav
     8:20.07       88216508    ---   --   -----   rd2006-11-18d3t05.wav
   183:27.42     1941734596 B                     (totals for 23 files, 1.0000 overall compression ratio)
Show Checksums
md5
5c7d7d8c4c62fbe0069dd1c9b40b89ae *rd2006-11-18d1t01.flac
2c3bcb8a40cbc25dda5f24ba862e6676 *rd2006-11-18d1t02.flac
646cd786f4b2eae5a642456ee2ff4557 *rd2006-11-18d1t03.flac
39e6dc5c7f8ec35e7d9083af30bf1181 *rd2006-11-18d1t04.flac
4c7e7bb94c2f662008fdcc20925fdef5 *rd2006-11-18d1t05.flac
1228c40a642c2279a5c38b5386ac0b90 *rd2006-11-18d1t06.flac
46e9900e25c520bf9a2be659d389658f *rd2006-11-18d1t07.flac
5d2fd25970e874de327fccb97b3413cd *rd2006-11-18d1t08.flac
ed1a0f5de307078a4d713106039ba3c6 *rd2006-11-18d2t01.flac
dffb92678a5dda3b76896e3b0557975a *rd2006-11-18d2t02.flac
94078badbf2f9af1d5cbd2369dddff25 *rd2006-11-18d2t03.flac
00bb775b7cc7edb12d5cfdeacd3258cd *rd2006-11-18d2t04.flac
f1a7b4862e3f9766d270192f00f614e3 *rd2006-11-18d2t05.flac
91a8f4b06f42c3615250d30cc6ebaac4 *rd2006-11-18d2t06.flac
d7d66b8906bb8fa2379555883fdbd0db *rd2006-11-18d2t07.flac
ad4941d1baba4c9c14014e86d1ed3713 *rd2006-11-18d2t08.flac
0a1fdafc19cdf2c2a5d95a0d49579bdf *rd2006-11-18d2t09.flac
b6c6698215c677968a07d765d56a3d6d *rd2006-11-18d2t10.flac
75e3f412d7cad15749ccd333e8dfc96e *rd2006-11-18d3t01.flac
c0c80b450f49622af5f9381111e2d313 *rd2006-11-18d3t02.flac
7cc6c10ba0912d9f82194e8b5ca1a910 *rd2006-11-18d3t03.flac
360b4ed5201b9b353cba525680ca89b7 *rd2006-11-18d3t04.flac
c66c7d1d41741590965586c7a7378860 *rd2006-11-18d3t05.flac
ffp
rd2006-11-18d1t01.flac:f5da90a5b909a8e8bad2b957e9d02c73
rd2006-11-18d1t02.flac:aa6815f05baecf33b1ade6f40e7eb52a
rd2006-11-18d1t03.flac:eaf8647b192addc55b4a05783abe9ad4
rd2006-11-18d1t04.flac:7d168980651e5218bafc1c5c4d3d9283
rd2006-11-18d1t05.flac:b00158e783f70234a4a03a397a594e6d
rd2006-11-18d1t06.flac:20b0ec1dfffb570bd9c4c9f43c571d2b
rd2006-11-18d1t07.flac:fa7c6c57969ac4daaecbbaad864ee5a1
rd2006-11-18d1t08.flac:e5b8bd4ccaf4cd8a86ce5c5a89376a38
rd2006-11-18d2t01.flac:4dd3183b1505aec7b0cce0402a29de95
rd2006-11-18d2t02.flac:27ed13aa0f74af896219fba042bc75f8
rd2006-11-18d2t03.flac:16e6de93565d50ee9ee7d8c785fde0a3
rd2006-11-18d2t04.flac:991729448149fbfbad9ed57c704154a8
rd2006-11-18d2t05.flac:4c641f02446b3f8f7b16dcc00eaa3d57
rd2006-11-18d2t06.flac:ccb73932d92ab50fa17804423af845e0
rd2006-11-18d2t07.flac:b445873d009a5a1a487318ba8a78642e
rd2006-11-18d2t08.flac:6b16c7216daf03cd5229077825f873e2
rd2006-11-18d2t09.flac:512a2f4b0fd63a4358cd89e1248a574a
rd2006-11-18d2t10.flac:0af38b60a36ed083621eb7d502dfd4f8
rd2006-11-18d3t01.flac:ec2a6ea9cb727372b05f90f238c69b9b
rd2006-11-18d3t02.flac:cb646d74c633a8cdef67fb10bb05f817
rd2006-11-18d3t03.flac:6484fb9035a75db76efcc8f86841d547
rd2006-11-18d3t04.flac:76882a64c1a2dc3b80f552ab704b24b7
rd2006-11-18d3t05.flac:d14cd7ec24d20a2386d42db1fc817914

Comments
Add Comment
Date User Comment