Browse Collections Artists Sources   Search Dates

Add Show    List Management    Help


Garcia 03/12/78
Suffolk Forum, Commack, NY
Comments Add Comment    Source Collectors    Add to Collection    Add to Want List    History
Source # 82587 Other Sources
Entered by Joe Jupille
Checksums ffp , md5
Disc Counts 2 / 2
Media Size
Date Circulated
Date Added
02/14/2007
02/15/2007
Source Summary JGB: Unknown MAC > CD, discs provided by Jim Wise. Transfer: CDR > EAC > WavMerge > Soundforge > CD-Wave > TLH > FLAC. 
Source Information - Download Text | Download Zip
JERRY GARCIA BAND
Suffolk Forum
Commack NY
03-12-1978

Disc One - Set One (57:02)

01 The Harder They Come
02 Mission in the Rain
03 Simple Twist of Fate
04 Tore Up Over You
05 Gomorrah
06 Mystery Train

Disc Two - Set Two (75:36)

01 crowd
02 Love in the Afternoon
03 I Second That Emotion
04 Russian Lullaby
05 They Love Eachother
06 I'll Be With Thee
07 Midnight Moonlight
08 crowd
09 Encore: Rhapsody in Red

AUD Source: Unknown MAC > CD, discs provided by Jim Wise.

Transfer: CDR > EAC > WavMerge > Soundforge > CD-Wave >
TLH > FLAC, February 2007 by Andrew F.

Notes:

ShnID-4473 supplies d1t01 and d1t02. Before Simple Twist,
the taper can be heard saying he was busted and had to
move to re-start taping. Compared to ShnID-4473, this
source sounds further back, but does have nice clarity.

ShnID-4473 also supplies a tape-flip patch; from 16:43 of
Russian Lullaby (crowd noise at end) thru 0:14 of TLEO.
There's some minor tape-speed problems in the following
spots: in Midnight Moonlight, 2:56 > 2:59, 4:40 > 4:42,
4:58 > 5:00; and Rhapsody in Red at 7:27.

The files were combined with WavMerge and re-tracked with
CD-Wave. Soundforge was used to make fades, patch the
tape-flip, correct the pitch, and adjust the levels. Also,
the levels of the ShnID-4473 tracks were raised to match.

md5

ff30a3189598a716afaf33c08fb4419f *jgb1978-03-12d1t01.flac
70cda8cc8544f7a2437af8a8a3d763bb *jgb1978-03-12d1t02.flac
8779f36e4c79dd851440b28893b95d5d *jgb1978-03-12d1t03.flac
af5583cfbaf3f34077d4543ee43f8183 *jgb1978-03-12d1t04.flac
65d76c0314d5acde295c8fcd1c9ff1b7 *jgb1978-03-12d1t05.flac
b8fa390440c8893e9d2805c8402498c8 *jgb1978-03-12d1t06.flac
1b624f476b35136c83012914be81b265 *jgb1978-03-12d2t01.flac
5d0ad2e73e32fff130435168af9900da *jgb1978-03-12d2t02.flac
1e0b3e2558c399b9b504a3ce5f9d0073 *jgb1978-03-12d2t03.flac
3a1a250f8e15605dff7f73c8767c7625 *jgb1978-03-12d2t04.flac
b92ad332e78fa820fa7ef58e04e3aabe *jgb1978-03-12d2t05.flac
788b35c7eb3606c245fc264959190314 *jgb1978-03-12d2t06.flac
2bf4a0d26b93260100975b2b052d4917 *jgb1978-03-12d2t07.flac
49b53fd456995ed05b803594d7c4d714 *jgb1978-03-12d2t08.flac
8f40c48deda6c4836cf4ca986ba3bfa8 *jgb1978-03-12d2t09.flac

ffp

jgb1978-03-12d1t01.flac:9155a356fdf0940342efc1624c054dee
jgb1978-03-12d1t02.flac:9036538b135cdc3ed70e497cd9af3f12
jgb1978-03-12d1t03.flac:adb63313081db08851fe2e6529f7e5e0
jgb1978-03-12d1t04.flac:a2098adac6de84def730dbf18614fdcb
jgb1978-03-12d1t05.flac:e99c472922cd0d6ed0e2ded97a92d54e
jgb1978-03-12d1t06.flac:479751939996d4151ca84059ff2fff69
jgb1978-03-12d2t01.flac:8d4bce35392aadae73bb9cdb4638dc51
jgb1978-03-12d2t02.flac:f043dd545c6a36179f49ff2a3c6be267
jgb1978-03-12d2t03.flac:57888742efcec6b397d181a7766c0d71
jgb1978-03-12d2t04.flac:bebd1cd4f0662457cc2c59558d4b05c4
jgb1978-03-12d2t05.flac:cd59245268bb94a5f40162b990baab63
jgb1978-03-12d2t06.flac:487f1f232c7e7f72f829a9502f28c51f
jgb1978-03-12d2t07.flac:2861214b0cca82c85ddbfb5fcebefc28
jgb1978-03-12d2t08.flac:72edc89af1b1222d4f4b79cc1bdb6056
jgb1978-03-12d2t09.flac:297038a265da9906aaa322de65e1d890

shntool

    length     expanded size   cdr  WAVE problems filename
    11:16.05      119258204    ---   --   ---xx   jgb1978-03-12d1t01.flac
     9:04.43       96062780    ---   --   ---xx   jgb1978-03-12d1t02.flac
    12:20.58      130672460    ---   --   ---xx   jgb1978-03-12d1t03.flac
     9:23.12       99341468    ---   --   ---xx   jgb1978-03-12d1t04.flac
     6:26.67       68248028    ---   --   ---xx   jgb1978-03-12d1t05.flac
     8:31.27       90203948    ---   --   ---xx   jgb1978-03-12d1t06.flac
     0:31.29        5536652    ---   --   ---xx   jgb1978-03-12d2t01.flac
    11:36.72      122943788    ---   --   ---xx   jgb1978-03-12d2t02.flac
    11:19.28      119841500    ---   --   ---xx   jgb1978-03-12d2t03.flac
    17:05.00      180810044    ---   --   ---xx   jgb1978-03-12d2t04.flac
     7:45.57       82160108    ---   --   ---xx   jgb1978-03-12d2t05.flac
     5:32.72       58734188    ---   --   ---xx   jgb1978-03-12d2t06.flac
    11:33.63      122393420    ---   --   ---xx   jgb1978-03-12d2t07.flac
     1:46.47       18808988    ---   --   ---xx   jgb1978-03-12d2t08.flac
     8:24.30       88976204    ---   --   ---xx   jgb1978-03-12d2t09.flac
   132:39.10     1403991780 B                     (totals for 15 files, 0.5495 overall compression ratio)

There were no sector boundary errors.
Show Checksums
ffp
jgb1978-03-12d1t01.flac:9155a356fdf0940342efc1624c054dee
jgb1978-03-12d1t02.flac:9036538b135cdc3ed70e497cd9af3f12
jgb1978-03-12d1t03.flac:adb63313081db08851fe2e6529f7e5e0
jgb1978-03-12d1t04.flac:a2098adac6de84def730dbf18614fdcb
jgb1978-03-12d1t05.flac:e99c472922cd0d6ed0e2ded97a92d54e
jgb1978-03-12d1t06.flac:479751939996d4151ca84059ff2fff69
jgb1978-03-12d2t01.flac:8d4bce35392aadae73bb9cdb4638dc51
jgb1978-03-12d2t02.flac:f043dd545c6a36179f49ff2a3c6be267
jgb1978-03-12d2t03.flac:57888742efcec6b397d181a7766c0d71
jgb1978-03-12d2t04.flac:bebd1cd4f0662457cc2c59558d4b05c4
jgb1978-03-12d2t05.flac:cd59245268bb94a5f40162b990baab63
jgb1978-03-12d2t06.flac:487f1f232c7e7f72f829a9502f28c51f
jgb1978-03-12d2t07.flac:2861214b0cca82c85ddbfb5fcebefc28
jgb1978-03-12d2t08.flac:72edc89af1b1222d4f4b79cc1bdb6056
jgb1978-03-12d2t09.flac:297038a265da9906aaa322de65e1d890
md5
ff30a3189598a716afaf33c08fb4419f *jgb1978-03-12d1t01.flac
70cda8cc8544f7a2437af8a8a3d763bb *jgb1978-03-12d1t02.flac
8779f36e4c79dd851440b28893b95d5d *jgb1978-03-12d1t03.flac
af5583cfbaf3f34077d4543ee43f8183 *jgb1978-03-12d1t04.flac
65d76c0314d5acde295c8fcd1c9ff1b7 *jgb1978-03-12d1t05.flac
b8fa390440c8893e9d2805c8402498c8 *jgb1978-03-12d1t06.flac
1b624f476b35136c83012914be81b265 *jgb1978-03-12d2t01.flac
5d0ad2e73e32fff130435168af9900da *jgb1978-03-12d2t02.flac
1e0b3e2558c399b9b504a3ce5f9d0073 *jgb1978-03-12d2t03.flac
3a1a250f8e15605dff7f73c8767c7625 *jgb1978-03-12d2t04.flac
b92ad332e78fa820fa7ef58e04e3aabe *jgb1978-03-12d2t05.flac
788b35c7eb3606c245fc264959190314 *jgb1978-03-12d2t06.flac
2bf4a0d26b93260100975b2b052d4917 *jgb1978-03-12d2t07.flac
49b53fd456995ed05b803594d7c4d714 *jgb1978-03-12d2t08.flac
8f40c48deda6c4836cf4ca986ba3bfa8 *jgb1978-03-12d2t09.flac

Comments
Add Comment
Other Sources (comments)
FOB Shure Audience >... (3)
Date User Comment