Browse Collections Artists Sources   Search Dates

Add Show    List Management    Help


Grateful Dead 10/12/89
Meadowlands Arena, East Rutherford, NJ
Comments Add Comment    Source Collectors    Add to Collection    Add to Want List    History
Source # 83293 Other Sources
Entered by Matt Vernon
Checksums ffp , flac-md5
Disc Counts 2 / 3
Media Size
Date Circulated
Date Added
03/13/2007
03/13/2007
Source Summary flac16; Recording Info: SBD -> Cassette Master (TDK MA-XG90) Transfer Info: Cassette Master (Tascam 122mkII) -> Apogee MiniMe (24bit/48k) -> Samplitude Professional v8.01 -> FLAC/16 All Transfers and Mastering By Charlie Miller 
  Archive
Source Information - Download Text | Download Zip
Grateful Dead - October 12, 1989
Meadowlands Arena - East Rutherford, NJ

Recording Info:
SBD -> Cassette Master (TDK MA-XG90)

Transfer Info:
Cassette Master (Tascam 122mkII) -> Apogee MiniMe (24bit/48k) ->
Samplitude Professional v8.01 -> FLAC/16
(3 Discs Audio / 2 Discs FLAC)

All Transfers and Mastering By Charlie Miller
[email protected]
febryary 5, 2007

Patch Info:
(2) Nakamichi 300/CP4 + (2) Nakamichi 100/CP1 -> Cassette Master -> CD
Space (3:45 - 4:12)

Notes:
-- Set 2 is seamless
-- Thanks to Paul Scotton and Joani Walker for the tapes
-- Patch source recorded By Steve Cherson

Set 1:
d1t01 - Tuning
d1t02 - Hell In A Bucket ->
d1t03 - Sugaree
d1t04 - Blow Away
d1t05 - Tennessee Jed
d1t06 - Queen Jane Approximately
d1t07 - Bird Song
d1t08 - Jack Straw

Set 2:
d2t01 - Tuning
d2t02 - Hey Pocky Way ->
d2t03 - Cumberland Blues ->
d2t04 - Looks Like Rain ->
d2t05 - He's Gone ->
d2t06 - Drums ->
d3t01 - Space ->
d3t02 - The Other One ->
d3t03 - Wharf Rat ->
d3t04 - Sugar Magnolia

Encore:
d3t05 - Brokedown Palace


SHNTOOL OUTPUT:
    length     expanded size   cdr  WAVE problems filename
     1:14.18       13095980    ---   --   -----   gd89-10-12d1t01.wav
     6:19.04       66865052    ---   --   -----   gd89-10-12d1t02.wav
    10:07.17      107114828    ---   --   -----   gd89-10-12d1t03.wav
    10:09.72      107596988    ---   --   -----   gd89-10-12d1t04.wav
     8:37.40       91292924    ---   --   -----   gd89-10-12d1t05.wav
     6:49.63       72295820    ---   --   -----   gd89-10-12d1t06.wav
    14:47.03      156473900    ---   --   -----   gd89-10-12d1t07.wav
     6:19.42       66954428    ---   --   -----   gd89-10-12d1t08.wav
     1:48.29       19119452    ---   --   -----   gd89-10-12d2t01.wav
     6:54.53       73154300    ---   --   -----   gd89-10-12d2t02.wav
     5:56.23       62852540    ---   --   -----   gd89-10-12d2t03.wav
     8:33.63       90641420    ---   --   -----   gd89-10-12d2t04.wav
    12:15.18      129696380    ---   --   -----   gd89-10-12d2t05.wav
     8:14.17       87181628    ---   --   -----   gd89-10-12d2t06.wav
    13:37.02      144123548    ---   --   -----   gd89-10-12d3t01.wav
     8:21.11       88402316    ---   --   -----   gd89-10-12d3t02.wav
    12:15.64      129804572    ---   --   -----   gd89-10-12d3t03.wav
     8:09.55       86389004    ---   --   -----   gd89-10-12d3t04.wav
     6:04.44       64313132    ---   --   -----   gd89-10-12d3t05.wav
   156:35.38     1657368212 B                     (totals for 19 files)
Show Checksums
ffp
gd89-10-12d1t01.flac:d77d64792f34b003bbac2ef9782571f0
gd89-10-12d1t02.flac:a0e5551467becb249e9ba8a65a649b4e
gd89-10-12d1t03.flac:b9241422eac054256a1e3890caa3d5b6
gd89-10-12d1t04.flac:be7058dda1bb87897fa3165d93a0585f
gd89-10-12d1t05.flac:064c171c080766a902fdb555037334f2
gd89-10-12d1t06.flac:ec8cdb01e93825c64d61569bd54575ed
gd89-10-12d1t07.flac:2f6eac4550bb33e4c5a191198b6e6f6c
gd89-10-12d1t08.flac:ccd690dcdcf99cb1f7d881ade28c8b70
gd89-10-12d2t01.flac:0fc37943b6992f4fdf113a5a249f4f72
gd89-10-12d2t02.flac:179a23ecda69fc0c611233eb599f3fa1
gd89-10-12d2t03.flac:83731b7a2d08fd657a9796bb46431915
gd89-10-12d2t04.flac:360442fec3f4e234533dcafd7c478f19
gd89-10-12d2t05.flac:f44072af9446c785903c9f95630eb1ca
gd89-10-12d2t06.flac:598035d0fb51dc92ee5ae20ee27a0375
gd89-10-12d3t01.flac:b7894ab11cddb19d6437a91c7e2c1bcd
gd89-10-12d3t02.flac:7f84cd7d65bfa989e1eb4d27a855e3db
gd89-10-12d3t03.flac:355c5acf260b522d157cacfe3294a1e7
gd89-10-12d3t04.flac:6ce135b338c4f435a6b44be626dd411f
gd89-10-12d3t05.flac:fb45cf5070da85a522af02e24b89c642
flac-md5
a778a17df50d41c1662567427ac40618 *gd89-10-12d1t01.flac
1b801f4ca263614256c1b0b572030142 *gd89-10-12d1t02.flac
f8f623f493f224bcaa1c898c0620364a *gd89-10-12d1t03.flac
6c495f3bcb20f5af267fbf8b058a42cc *gd89-10-12d1t04.flac
f8928db144e30fd4d5140259e7c130eb *gd89-10-12d1t05.flac
f1c00a17568b508e7e5a9b0f22303f10 *gd89-10-12d1t06.flac
cdf90608c3339b0571bf435233d9c63d *gd89-10-12d1t07.flac
021c0179ceebc1465ea67c998e55e928 *gd89-10-12d1t08.flac
ecdb1679a4d0eab39f8dcc0349cda936 *gd89-10-12d2t01.flac
d49ff2a73c8c6b11c24cfbc732286c06 *gd89-10-12d2t02.flac
28660de76c6878570b2c3b9942e15421 *gd89-10-12d2t03.flac
e660581231c5ab4e9bb36b24c1ee76ac *gd89-10-12d2t04.flac
487b6ff206675f3ea371d303d506ae30 *gd89-10-12d2t05.flac
2825119fdeb390da404d83a89864501c *gd89-10-12d2t06.flac
7744043f53038310addc94299791d902 *gd89-10-12d3t01.flac
30436fc2556cbb93c3c81255c8e6d318 *gd89-10-12d3t02.flac
ea748f16cb00d1ddcb88ef2fd2fba0ba *gd89-10-12d3t03.flac
4dc88436d132a2a63069d5b5da7ae6ec *gd89-10-12d3t04.flac
dc43e787153cdd6a95ac98eb24f9a25c *gd89-10-12d3t05.flac

Comments
Add Comment
Other Sources (comments)
Sbd> Cas(m)> Dat> ZA2/PC>... (0) Lineage: SBD -> Cm -> Dat... (0) flac16; AUD:... (0) flac16; matrix of... (0) flac16; Master... (0) flac24; Master... (0) flac16; Taper: M.... (0) flac24; Master... (0) flac16; Master... (0) flac16/48kHz;... (0) flac16/48kHz; Source... (0)
Date User Comment