Browse Collections Artists Sources   Search Dates

Add Show    List Management    Help


Grateful Dead 08/18/89
The Greek Theatre - University of California, Berkeley, CA
Comments Add Comment    Source Collectors    Add to Collection    Add to Want List    History
Source # 83774 Other Sources
Entered by Matt Vernon
Checksums ffp , flac-md5
Disc Counts 2 / 3
Media Size
Date Circulated
Date Added
03/29/2007
03/30/2007
Source Summary flac16; Recording Info: SBD -> Cassette Master (TDK MA-XG90) Transfer Info: Cassette Master (Tascam 122mkII) -> Apogee MiniMe (24bit/48k) -> Samplitude Professional v8.01 -> FLAC/16 All Transfers and Mastering By Charlie Miller 
  Archive
Source Information - Download Text | Download Zip
Grateful Dead - August 18, 1989
Greek Theatre - Berkeley, CA
University of California

Recording Info:
SBD -> Cassette Master (TDK MA-XG90)

Transfer Info:
Cassette Master (Tascam 122mkII) -> Apogee MiniMe (24bit/48k) ->
Samplitude Professional v8.01 -> FLAC/16
(3 Discs Audio / 2 Discs FLAC)

All Transfers and Mastering By Charlie Miller
[email protected]
March 14, 2007

Patch Info:
SBD -> Dat -> CD supplies:
Space (1:10 - 1:15)

Notes:
-- 2nd Set is seamless
-- Thanks to Paul Scotton and Joani Walker for the tapes

Set 1:
d1t01 - Tuning
d1t02 - Cold Rain And Snow
d1t03 - New Minglewood Blues
d1t04 - Row Jimmy
d1t05 - When I Paint My Masterpiece
d1t06 - Built To Last
d1t07 - Victim Or The Crime ->
d1t08 - Bird Song
d1t09 - The Promised Land

Set 2:
d2t01 - Iko Iko
d2t02 - Looks Like Rain
d2t03 - Terrapin Station ->
d2t04 - Drums ->
d3t01 - Space ->
d3t02 - Crazy Fingers ->
d3t03 - I Need A Miracle ->
d3t04 - Stella Blue ->
d3t05 - Throwing Stones ->
d3t06 - Turn On Your Lovelight

Encore:
d3t07 - Black Muddy River
d3t08 - And We Bid You Good Night


SHNTOOL OUTPUT:
    length     expanded size   cdr  WAVE problems filename
     0:58.13       10261820    ---   --   -----   gd89-08-18d1t01.wav
     8:12.72       86958188    ---   --   -----   gd89-08-18d1t02.wav
    10:00.18      105882380    ---   --   -----   gd89-08-18d1t03.wav
    10:48.20      114354284    ---   --   -----   gd89-08-18d1t04.wav
     6:18.44       66782732    ---   --   -----   gd89-08-18d1t05.wav
     6:41.47       70846988    ---   --   -----   gd89-08-18d1t06.wav
     6:04.64       64360172    ---   --   -----   gd89-08-18d1t07.wav
    11:45.18      124404380    ---   --   -----   gd89-08-18d1t08.wav
     4:38.46       49147436    ---   --   -----   gd89-08-18d1t09.wav
     7:02.62       74586668    ---   --   -----   gd89-08-18d2t01.wav
    10:11.15      107815724    ---   --   -----   gd89-08-18d2t02.wav
    12:26.57      131728508    ---   --   -----   gd89-08-18d2t03.wav
    11:30.34      121796012    ---   --   -----   gd89-08-18d2t04.wav
     9:50.60      104217164    ---   --   -----   gd89-08-18d3t01.wav
     9:04.72       96130988    ---   --   -----   gd89-08-18d3t02.wav
     4:35.44       48613532    ---   --   -----   gd89-08-18d3t03.wav
     8:49.47       93426188    ---   --   -----   gd89-08-18d3t04.wav
     8:41.08       91923260    ---   --   -----   gd89-08-18d3t05.wav
     8:14.01       87143996    ---   --   -----   gd89-08-18d3t06.wav
     6:30.63       68944220    ---   --   -----   gd89-08-18d3t07.wav
     2:52.28       30406700    ---   --   -----   gd89-08-18d3t08.wav
   165:19.08     1749731340 B                     (totals for 21 files)
Show Checksums
ffp
gd89-08-18d1t01.flac:dc6555dbcedf3b32e388c9b99ee6d05b
gd89-08-18d1t02.flac:cb4100af14b7cb964cb8473d73153957
gd89-08-18d1t03.flac:36f0dcaa80fac0259c353030fd3aa5e3
gd89-08-18d1t04.flac:b33188050aa36c3f9ede793eb355c2d1
gd89-08-18d1t05.flac:0c2b05904a724d7ed8c076e99dafc44b
gd89-08-18d1t06.flac:bc567489a70815ca36908acfa6a75fc7
gd89-08-18d1t07.flac:c13382d081bbb2a068a78a17ff9f4c8c
gd89-08-18d1t08.flac:7d65768a3079cec29fff3aa65f8e8b82
gd89-08-18d1t09.flac:7fa39a13fb1d05d47a74316edc6bd4ad
gd89-08-18d2t01.flac:11220a0b50ccca8086a82b13aa279ebc
gd89-08-18d2t02.flac:77451241b0e38f437cc4661d0ba49155
gd89-08-18d2t03.flac:8e0612eb130d52ae84520b08f214cb8a
gd89-08-18d2t04.flac:2f29a5b127a1c8a5796b37134f9ee8f7
gd89-08-18d3t01.flac:9f92c45c790df72c88a4ad8f4d9d1fb2
gd89-08-18d3t02.flac:a0534f49c0c004e2c05976f848a01e42
gd89-08-18d3t03.flac:753084b3cf0c40423acb14116551ed35
gd89-08-18d3t04.flac:4ee43d4fe22a16bdcbd0ed0da1123b50
gd89-08-18d3t05.flac:23a9408fb3524430f22413ae778b328b
gd89-08-18d3t06.flac:07dfe3206abcab0c4c0d8d0a68b4e95d
gd89-08-18d3t07.flac:ed74f51646f1a3d50d68fec1cf12cbb7
gd89-08-18d3t08.flac:f972a15226426027530b5f5efd70508e
flac-md5
a8c51ec3d35e10a13b37843d700aba63 *gd89-08-18d1t01.flac
26ddb34efea175bc38028809b7b870ba *gd89-08-18d1t02.flac
0c94fc4b6adec18eb2acc0bd5052a5dc *gd89-08-18d1t03.flac
20cc6827485de3964aa5235dcbad73cb *gd89-08-18d1t04.flac
3c5a82c20696160b0e8278d8d0dceaff *gd89-08-18d1t05.flac
242495fd68158af6d11578db8093a77d *gd89-08-18d1t06.flac
e6cd4de4c39ed18628ef47c82b390ac9 *gd89-08-18d1t07.flac
9a5e996b117a060d529593c41f1a62f8 *gd89-08-18d1t08.flac
6e70356449c056a894b33245a9fbd86b *gd89-08-18d1t09.flac
77b517777a44c9d9d0ebee33236a144f *gd89-08-18d2t01.flac
bcfa095cab997ba18f17f0e215d3de6c *gd89-08-18d2t02.flac
6bb2c8060d5ee8f619e6add055593b6f *gd89-08-18d2t03.flac
6ed07721aeeace836fd214f055b55c50 *gd89-08-18d2t04.flac
94b2c8f66b39af8e24569d21af34fb35 *gd89-08-18d3t01.flac
8592556fc599ee865ac70d3f97a80120 *gd89-08-18d3t02.flac
7a60b402ad66c17de733d380bfffa6ab *gd89-08-18d3t03.flac
cdadf1ed6f8d5b063025581ca4fbcafa *gd89-08-18d3t04.flac
2104dfa904f9bc35eb65de06199c29c2 *gd89-08-18d3t05.flac
0703d3590393d6d858b242f60edc1b74 *gd89-08-18d3t06.flac
4a05710bd24ac4a2d8ae350eaba12785 *gd89-08-18d3t07.flac
a4aa06bdd1294edab8f60ef0f578b4a7 *gd89-08-18d3t08.flac

Comments
Add Comment
Other Sources (comments)
Healy Matrix Digital SBD >... (4) Jay Ashley (Bertha)... (1) Seamless fix of (0) flac16; AUD:... (0) flac16; LINEAGE: 2x... (0) flac16; RECORDED BY:... (0) flac16; Source: 2... (0) flac16; Source info:... (0) flac24 96khz Akg... (0) flac16 44.1khz ... (0) flac24; Set 2... (0) flac24; Set 2... (0) flac16; Recording... (0) flac16; Set 2... (0)
Date User Comment