Browse Collections Artists Sources   Search Dates

Add Show    List Management    Help


Derek Trucks Band 06/23/04
Paramus Picture Show, Paramus, NJ
Comments Add Comment    Source Collectors    Add to Collection    Add to Want List    History
Source # 84721 Other Sources
Entered by Steve Blanchard
Checksums flac.md5 , ffp
Disc Counts 2 / 2
Media Size
Date Circulated
Date Added
04/20/07
05/02/2007
Source Summary Microtech Gefell M210's > Oade M248 > Sony SBM-1 > Sony TC-D8 Dat; Transfer: MAD > Tascam DA20 > Tascam CDRW-5000 > CDR > EAC > Soundforge (fades) > CD-Wave (track-splitting) > TLH v.1.0.0.72 (SBE-OK, checksums, FLAC compression) > FLAC 
Source Information - Download Text | Download Zip
DEREK TRUCKS BAND
Paramus Picture Show
Paramus NJ
06-23-2004

Source: Microtech Gefell M210's > Oade M248 > Sony SBM-1 > Sony TC-D8 Dat.
Set up in 10th row center orchestra (FOB), mics on stand aprx 7-feet high.

Transfer: MAD > Tascam DA20 > Tascam CDRW-5000 > CDR > EAC > Soundforge
(fades) > CD-Wave (track-splitting) > TLH v.1.0.0.72 (SBE-OK, checksums,
FLAC compression) > FLAC. Taped and transferred to CDR by Jon Pasternak.

Disc One - Set One (57:38)

01 Kam-Ma-Lay
02 Everything Is Everything
03 Forty-Four Blues
04 Cheesecake
05 All I Do
06 This Is The Sun That >
07 Pedro

Disc Two - Set Two (59:16)

01 Preachin' Blues
02 Like Anyone Else
03 Lonely Avenger
04 Leavin' Trunk
05 Life Is Crazy
06 For My Brother
07 Volunteered Slavery
08 Encore: Yield Not

md5

e283642ff94bbd4bfd415abdd515d409 *dtb2004-06-23d1t01.flac
40a1db3be2e1393c405e1b0ab94beda1 *dtb2004-06-23d1t02.flac
c15d9166b35b4dd885aca0c257032fa2 *dtb2004-06-23d1t03.flac
837040045c448040f03876a3eef9803d *dtb2004-06-23d1t04.flac
fb96ea00d93067f71740d63bec4adaa9 *dtb2004-06-23d1t05.flac
87d898fbc43647d61a52f2271d8854c2 *dtb2004-06-23d1t06.flac
75536df672186ca00f92bf0d2380c202 *dtb2004-06-23d1t07.flac
aa3a1d13a5712030572a34bdabc8d478 *dtb2004-06-23d2t01.flac
293b05dca8b2ff7b845b470e271da395 *dtb2004-06-23d2t02.flac
98f930b065212761edfb5cf0d9e8596a *dtb2004-06-23d2t03.flac
bd65800134358b66faf47db0b98a05c0 *dtb2004-06-23d2t04.flac
009eae8542bd2fce082fcfe8209fcec7 *dtb2004-06-23d2t05.flac
f7ac0c5e3ea720a846aa5dd53b5f71e9 *dtb2004-06-23d2t06.flac
08a4854d6a5ad318695eee833067e080 *dtb2004-06-23d2t07.flac
1b89ee3bef6d3808ac47b29bf86a3136 *dtb2004-06-23d2t08.flac

ffp

dtb2004-06-23d1t01.flac:74fcfedbbb7c323e0fcba21ed36bbc57
dtb2004-06-23d1t02.flac:6e8d87734abb7fdaa5677f2a150a684d
dtb2004-06-23d1t03.flac:ba177fc389c6bc921b4eb05a645cbb71
dtb2004-06-23d1t04.flac:748f4e30459d1823150a9452d9f87579
dtb2004-06-23d1t05.flac:e77afe475bb0ed4f149c8fe17fa54d9f
dtb2004-06-23d1t06.flac:7d53e77e36378b08d8f96b98124da6c6
dtb2004-06-23d1t07.flac:dca063ddc88181c56b3d3b7480c44605
dtb2004-06-23d2t01.flac:830b71552c339aa95ea27ca4ce214e7d
dtb2004-06-23d2t02.flac:2c23e34272789cf694cd69bff3097890
dtb2004-06-23d2t03.flac:86e114636223b5b073f787bafc5cba0b
dtb2004-06-23d2t04.flac:fd4e2ce3eaddcb8da8a96f978c3baf8f
dtb2004-06-23d2t05.flac:600a474e8d0677b710ab076716cf2f07
dtb2004-06-23d2t06.flac:288a6e19e2f3d5d5592a85c7e86495ad
dtb2004-06-23d2t07.flac:3190f04d03b76d1b8059c031dfe0f522
dtb2004-06-23d2t08.flac:2103def65517d236742c1f1636735e4d

shntool

    length     expanded size   cdr  WAVE problems filename
     7:35.07       80278508    ---   --   ---xx   dtb2004-06-23d1t01.flac
     6:14.18       66015980    ---   --   ---xx   dtb2004-06-23d1t02.flac
     8:56.71       94717436    ---   --   ---xx   dtb2004-06-23d1t03.flac
     8:27.52       89557148    ---   --   ---xx   dtb2004-06-23d1t04.flac
     5:00.23       52974140    ---   --   ---xx   dtb2004-06-23d1t05.flac
     5:33.31       58814156    ---   --   ---xx   dtb2004-06-23d1t06.flac
    15:50.54      167707052    ---   --   ---xx   dtb2004-06-23d1t07.flac
     7:53.37       83524268    ---   --   ---xx   dtb2004-06-23d2t01.flac
     7:29.12       79231868    ---   --   ---xx   dtb2004-06-23d2t02.flac
     7:06.71       75313436    ---   --   ---xx   dtb2004-06-23d2t03.flac
     4:43.68       50081180    ---   --   ---xx   dtb2004-06-23d2t04.flac
     5:46.30       61105004    ---   --   ---xx   dtb2004-06-23d2t05.flac
    10:58.40      116165324    ---   --   ---xx   dtb2004-06-23d2t06.flac
     8:01.15       84883724    ---   --   ---xx   dtb2004-06-23d2t07.flac
     7:17.06       77100956    ---   --   ---xx   dtb2004-06-23d2t08.flac
   116:55.10     1237470180 B                     (totals for 15 files, 0.5710 overall compression ratio)

There were no sector boundary errors.
Show Checksums
flac.md5
e283642ff94bbd4bfd415abdd515d409 *dtb2004-06-23d1t01.flac
40a1db3be2e1393c405e1b0ab94beda1 *dtb2004-06-23d1t02.flac
c15d9166b35b4dd885aca0c257032fa2 *dtb2004-06-23d1t03.flac
837040045c448040f03876a3eef9803d *dtb2004-06-23d1t04.flac
fb96ea00d93067f71740d63bec4adaa9 *dtb2004-06-23d1t05.flac
87d898fbc43647d61a52f2271d8854c2 *dtb2004-06-23d1t06.flac
75536df672186ca00f92bf0d2380c202 *dtb2004-06-23d1t07.flac
aa3a1d13a5712030572a34bdabc8d478 *dtb2004-06-23d2t01.flac
293b05dca8b2ff7b845b470e271da395 *dtb2004-06-23d2t02.flac
98f930b065212761edfb5cf0d9e8596a *dtb2004-06-23d2t03.flac
bd65800134358b66faf47db0b98a05c0 *dtb2004-06-23d2t04.flac
009eae8542bd2fce082fcfe8209fcec7 *dtb2004-06-23d2t05.flac
f7ac0c5e3ea720a846aa5dd53b5f71e9 *dtb2004-06-23d2t06.flac
08a4854d6a5ad318695eee833067e080 *dtb2004-06-23d2t07.flac
1b89ee3bef6d3808ac47b29bf86a3136 *dtb2004-06-23d2t08.flac

ffp
dtb2004-06-23d1t01.flac:74fcfedbbb7c323e0fcba21ed36bbc57
dtb2004-06-23d1t02.flac:6e8d87734abb7fdaa5677f2a150a684d
dtb2004-06-23d1t03.flac:ba177fc389c6bc921b4eb05a645cbb71
dtb2004-06-23d1t04.flac:748f4e30459d1823150a9452d9f87579
dtb2004-06-23d1t05.flac:e77afe475bb0ed4f149c8fe17fa54d9f
dtb2004-06-23d1t06.flac:7d53e77e36378b08d8f96b98124da6c6
dtb2004-06-23d1t07.flac:dca063ddc88181c56b3d3b7480c44605
dtb2004-06-23d2t01.flac:830b71552c339aa95ea27ca4ce214e7d
dtb2004-06-23d2t02.flac:2c23e34272789cf694cd69bff3097890
dtb2004-06-23d2t03.flac:86e114636223b5b073f787bafc5cba0b
dtb2004-06-23d2t04.flac:fd4e2ce3eaddcb8da8a96f978c3baf8f
dtb2004-06-23d2t05.flac:600a474e8d0677b710ab076716cf2f07
dtb2004-06-23d2t06.flac:288a6e19e2f3d5d5592a85c7e86495ad
dtb2004-06-23d2t07.flac:3190f04d03b76d1b8059c031dfe0f522
dtb2004-06-23d2t08.flac:2103def65517d236742c1f1636735e4d


Comments
Add Comment
Other Sources (comments)
AKG1k's (card)> Zaolla> V3>... (0)
Date User Comment