Browse Collections Artists Sources   Search Dates

Add Show    List Management    Help


Widespread Panic 06/29/02
Red Rocks Ampitheatre, Morrison, CO
Comments Add Comment    Source Collectors    Add to Collection    Add to Want List    History
Source # 87866 Other Sources
Entered by Marc Pujol
Checksums ffp
Disc Counts 0 / 0
Media Size
Date Circulated
Date Added
09/25/07
10/25/2007
Source Summary Source: MBHO 603a/KA200 > V2 > mod.SBM-1 > M1 (TS-DFC)
Transfer: ARCHIVE Python 01931-XXX5AC > DAT2WAV > SoundForge(EQ/Fades) > Samplitude(48>44.1 Ultra High 1) > CDWave > FLAC16(Level 8)
Taped & Transfered by: Eric Foelske  
Source Information - Download Text | Download Zip
Widespread Panic

Saturday, June 29, 2002
Red Rocks Amphitheatre
Morrison, CO

Disc 1: (49:27)
Set I
1. The Take Out >
2. Help Me Somebody
3. Give
4. Surprise Valley >
5. Do What You Like >
6. You Got Yours
7. Papa Legba
8. Trouble >
9. Porch Song

Disc 2: (66:00)
Set II...
1. Thought Sausage
2. Greta >
3. Junior >
4. Goin' Out West
5. Down*
6. Use Me*# >
7. Drums >

Disc 3: (50:55)
...Set II
1. Bass & Drums >
2. Hatfield >
3. Henry Parsons Died >
4. Climb to Safety
Encore
5. Ophelia
6. Flat Foot Flewzy*

* with Randall Bramblett on saxophone
# with George McConnell on guitar

['Third Stone From The Sun' and 'Interstellar Overdrive' teases by Dave after 'Drums']

Thanks to www.everydaycompanion.com for the setlist!

Source: MBHO 603a/KA200 > V2 > mod.SBM-1 > M1 (TS-DFC)
Transfer: ARCHIVE Python 01931-XXX5AC > DAT2WAV > SoundForge(EQ/Fades) > Samplitude(48>44.1 Ultra High 1) > CDWave > FLAC16(Level 8)
Taped & Transfered by: Eric Foelske (taperwookie AT gmail.com)
--------------------------------------------------------
FLAC Fingerprint:
--------------------------------------------------------
wsp2002-06-29d1t01.flac:def340870dc57875d931f0010ea73259
wsp2002-06-29d1t02.flac:1b4f15cae4751f888f79e4d336eed72f
wsp2002-06-29d1t03.flac:2506a31116ca82a925231cf91e9fbb75
wsp2002-06-29d1t04.flac:b7d878a6db43a10664a2b1177985b1e4
wsp2002-06-29d1t05.flac:080873d1bacf7e7526bed9b844ef71d6
wsp2002-06-29d1t06.flac:e4fd4d263f66b003f468f73db54fb587
wsp2002-06-29d1t07.flac:6ce68ff970d9761e5b33af472191bf70
wsp2002-06-29d1t08.flac:ab1f88db3e6f937e60bb12648c22a1b6
wsp2002-06-29d1t09.flac:dd1ee7d291866ffeeb0a370f67d5e6db
wsp2002-06-29d2t01.flac:c47e3447ef83a5d8b5fe56b6e2c51819
wsp2002-06-29d2t02.flac:ff25ce523aff9ae5865a08864f94c415
wsp2002-06-29d2t03.flac:0032f0697a08c2f311a6c54606cb353f
wsp2002-06-29d2t04.flac:55bb7f9004cf02ced406ef4f95ed7a39
wsp2002-06-29d2t05.flac:7e4a42828457146918953d8d1a04565f
wsp2002-06-29d2t06.flac:9ce6f999820978eb46c7c6e86c05494d
wsp2002-06-29d2t07.flac:904be0838d804bcbf161a1f11ddc64ab
wsp2002-06-29d3t01.flac:cb57cd025d842737c9ecde8a63a22067
wsp2002-06-29d3t02.flac:fbb767222661c517de3b8942383c30ca
wsp2002-06-29d3t03.flac:52dd2b82c1d7297f5d84bb7e78c1164c
wsp2002-06-29d3t04.flac:2d4458baf98fddff49f63101b92afed2
wsp2002-06-29d3t05.flac:f46a2d0c498287d8bbec7110e2fba0c5
wsp2002-06-29d3t06.flac:36ff67bd275a130d33f61415ef6687ac
--------------------------------------------------------
shntool:
--------------------------------------------------------
    length     expanded size   cdr  WAVE problems filename
     2:38.70       28035884    ---   --   ---xx   wsp2002-06-29d1t01.flac
     5:19.42       56370428    ---   --   ---xx   wsp2002-06-29d1t02.flac
     3:37.40       38372924    ---   --   ---xx   wsp2002-06-29d1t03.flac
    10:08.11      107277116    ---   --   ---xx   wsp2002-06-29d1t04.flac
     7:57.49       84258092    ---   --   ---xx   wsp2002-06-29d1t05.flac
     5:39.07       59816108    ---   --   ---xx   wsp2002-06-29d1t06.flac
     7:40.21       81193436    ---   --   ---xx   wsp2002-06-29d1t07.flac
     2:58.09       31420412    ---   --   ---xx   wsp2002-06-29d1t08.flac
     3:27.73       36686540    ---   --   ---xx   wsp2002-06-29d1t09.flac
     6:05.28       64451900    ---   --   ---xx   wsp2002-06-29d2t01.flac
    11:47.31      124787756    ---   --   ---xx   wsp2002-06-29d2t02.flac
     8:47.59       93101612    ---   --   ---xx   wsp2002-06-29d2t03.flac
     6:33.74       69499292    ---   --   ---xx   wsp2002-06-29d2t04.flac
     5:03.57       53583308    ---   --   ---xx   wsp2002-06-29d2t05.flac
    14:39.48      155168540    ---   --   ---xx   wsp2002-06-29d2t06.flac
    13:02.70      138109484    ---   --   ---xx   wsp2002-06-29d2t07.flac
    10:23.38      109986620    ---   --   ---xx   wsp2002-06-29d3t01.flac
    13:49.19      146280332    ---   --   ---xx   wsp2002-06-29d3t02.flac
     6:22.32       67460108    ---   --   ---xx   wsp2002-06-29d3t03.flac
     9:47.73      103718540    ---   --   ---xx   wsp2002-06-29d3t04.flac
     3:40.17       38848028    ---   --   ---xx   wsp2002-06-29d3t05.flac
     6:52.12       72705068    ---   --   ---xx   wsp2002-06-29d3t06.flac
   166:23.55     1761131528 B                     (totals for 22 files, 0.5419 overall compression ratio)
Show Checksums
ffp
wsp2002-06-29d1t01.flac:def340870dc57875d931f0010ea73259
wsp2002-06-29d1t02.flac:1b4f15cae4751f888f79e4d336eed72f
wsp2002-06-29d1t03.flac:2506a31116ca82a925231cf91e9fbb75
wsp2002-06-29d1t04.flac:b7d878a6db43a10664a2b1177985b1e4
wsp2002-06-29d1t05.flac:080873d1bacf7e7526bed9b844ef71d6
wsp2002-06-29d1t06.flac:e4fd4d263f66b003f468f73db54fb587
wsp2002-06-29d1t07.flac:6ce68ff970d9761e5b33af472191bf70
wsp2002-06-29d1t08.flac:ab1f88db3e6f937e60bb12648c22a1b6
wsp2002-06-29d1t09.flac:dd1ee7d291866ffeeb0a370f67d5e6db
wsp2002-06-29d2t01.flac:c47e3447ef83a5d8b5fe56b6e2c51819
wsp2002-06-29d2t02.flac:ff25ce523aff9ae5865a08864f94c415
wsp2002-06-29d2t03.flac:0032f0697a08c2f311a6c54606cb353f
wsp2002-06-29d2t04.flac:55bb7f9004cf02ced406ef4f95ed7a39
wsp2002-06-29d2t05.flac:7e4a42828457146918953d8d1a04565f
wsp2002-06-29d2t06.flac:9ce6f999820978eb46c7c6e86c05494d
wsp2002-06-29d2t07.flac:904be0838d804bcbf161a1f11ddc64ab
wsp2002-06-29d3t01.flac:cb57cd025d842737c9ecde8a63a22067
wsp2002-06-29d3t02.flac:fbb767222661c517de3b8942383c30ca
wsp2002-06-29d3t03.flac:52dd2b82c1d7297f5d84bb7e78c1164c
wsp2002-06-29d3t04.flac:2d4458baf98fddff49f63101b92afed2
wsp2002-06-29d3t05.flac:f46a2d0c498287d8bbec7110e2fba0c5
wsp2002-06-29d3t06.flac:36ff67bd275a130d33f61415ef6687ac

Comments
Add Comment
Other Sources (comments)
B&K4011's (OTS, 3rd row)... (0) MBHO 603a/ka-200's > V2 >... (0) (24bit/96kHz .ape set)DPA... (0) (16bit/44.1kHz .shn set)... (0) (ts/1st row/center) Schoeps... (0)
Date User Comment