Browse Collections Artists Sources   Search Dates

Add Show    List Management    Help


Robert Randolph [and the Family Band] 11/09/07
Eaglepalooza, Hattiesburg, MS
Comments Add Comment    Source Collectors    Add to Collection    Add to Want List    History
Source # 89041 Other Sources
Entered by
Checksums ffp
Disc Counts 0 / 0
Media Size
Date Circulated
Date Added
11/10/07
12/13/2007
Source Summary Source: AKG c460b/ck61(DIN)>UA-5>H120
Location: DFC. FOB
Transfer: H120>USB>CDWAVE>FLAC 
Source Information - Download Text | Download Zip
Robert Randolph & the Family Band
2007-11-09
"Eaglepalooza"
Main Street
Hattiesburg, MS

Source: AKG c460b/ck61(DIN)>UA-5>H120
Location: DFC. FOB
Transfer: H120>USB>CDWAVE>FLAC
Taper: jkbyram

Show was one set

Disc 1
01. Voodoo Child
02. More Love>Don't Stop>More Love
03. Axel F Jam
04. Jesus Is Just Alright
05.
06. Shake Your Hips
07. Poison

Disc 2
01. ?*
02. ?
03. The March
04. crowd
Encore
05. ?
06.


* Robert has a few fans come play guitar

any help with the setlist would be great

    length     expanded size   cdr  WAVE problems filename
     9:14.13       97756220    ---   --   -----   rrfb2007-11-09d1t01.wav
     9:18.25       98490044    ---   --   -----   rrfb2007-11-09d1t02.wav
     7:05.66       75125276    ---   --   -----   rrfb2007-11-09d1t03.wav
     5:59.11       63353516    ---   --   -----   rrfb2007-11-09d1t04.wav
     6:40.72       70729388    ---   --   -----   rrfb2007-11-09d1t05.wav
    12:57.52      137185148    ---   --   -----   rrfb2007-11-09d1t06.wav
     4:40.60       49533164    ---   --   -----   rrfb2007-11-09d1t07.wav
     9:35.07      101446508    ---   --   -----   rrfb2007-11-09d2t01.wav
     7:57.30       84213404    ---   --   -----   rrfb2007-11-09d2t02.wav
     8:29.51       89907596    ---   --   -----   rrfb2007-11-09d2t03.wav
     1:57.49       20754092    ---   --   -----   rrfb2007-11-09d2t04.wav
     4:42.39       49836572    ---   --   -----   rrfb2007-11-09d2t05.wav
     8:55.60       94515164    ---   --   -----   rrfb2007-11-09d2t06.wav
     5:09.10       54531164    ---   --   -----   rrfb2007-11-09d2t07.wav
   102:44.20     1087377256 B                     (totals for 14 files, 1.0000 overall compression ratio)
Show Checksums
ffp
rrfb2007-11-09d1t01.flac:8be09982daa74b020281f6537df44003
rrfb2007-11-09d1t02.flac:ab8f2086fd38a8c1f676af31845d4b3e
rrfb2007-11-09d1t03.flac:03744d672233f96ca9f29a1000fbdaa7
rrfb2007-11-09d1t04.flac:c80caf169eaf68067ddec875f0b6a7f7
rrfb2007-11-09d1t05.flac:ff345608f8e2bc1d0b0f95210e472d2d
rrfb2007-11-09d1t06.flac:97777a53541d4e8185b620c15aa6f3c2
rrfb2007-11-09d1t07.flac:8e43b53ccabe047bc296a00d31b2dd08
rrfb2007-11-09d2t01.flac:a185ef8737ad945102f523d54b1b2bb2
rrfb2007-11-09d2t02.flac:019b4202d188e2ec91540146847f69b0
rrfb2007-11-09d2t03.flac:45c2ee4e85af945df7d98dc1a4accfe0
rrfb2007-11-09d2t04.flac:1fd8130b6feda92ba8544e5ef543113b
rrfb2007-11-09d2t05.flac:00969e90ffff90baa3b668aa3fa990e7
rrfb2007-11-09d2t06.flac:a59502a4f40bbb8a3b0e5dae539cb5e4
rrfb2007-11-09d2t07.flac:52cce1d496e1908fa5882ce2524002a2

Comments
Add Comment
Date User Comment