Browse Collections Artists Sources   Search Dates

Add Show    List Management    Help


Phish 05/23/00
Roseland Ballroom, New York, NY
Comments Add Comment    Source Collectors    Add to Collection    Add to Want List    History
Source # 89278 Other Sources
Entered by Jason Sobel
Checksums all_ffp , all_wav_md5
Disc Counts 1 / 1
Media Size
Date Circulated
Date Added
12/30/2007
12/30/2007
Source Summary (soundcheck only) Schoeps mk4 > kc5 > cmc5 > Sonosax SX-M2 > Sony TCD-D3 (@ 44.1 kHz); Tascam DA-20MKII > Tascam HD-P2 > WaveLab 5.01b (fades) > CD Wave v1.96.1 > FLAC v1.2.1 (Level 8) 
Source Information - Download Text | Download Zip
Phish soundcheck
May 23, 2000
Roseland Ballroom
New York, NY

source:
Schoeps mk4 > kc5 > cmc5 > Sonosax SX-M2 > Sony TCD-D3 (@ 44.1 kHz)

transfer:
Tascam DA-20MKII > Tascam HD-P2 > CF card > usb 2.0 > pc > WaveLab 5.01b (fades) > CD Wave v1.96.1 > FLAC v1.2.1 (Level 8)

FLAC tags added with metaflac v1.2.1

seeded December 30, 2007

total time - [59:44]
01 - [01:42] - intro setup
02 - [05:35] - Mozambique
03 - [02:18] - Driver
04 - [05:15] - Driver (x2)
05 - [03:53] - Driver (x3)
06 - [07:08] - Driver (x4)
07 - [08:36] - My Soul
08 - [02:37] - Ginseng Sullivan
09 - [03:16] - Ginseng Sullivan (x2)
10 - [03:33] - Long Cool Woman in a Black Dress
11 - [05:27] - Funky Bitch
12 - [07:40] - Farmhouse
13 - [02:45] - Mike / Fishman jam

notes:
The levels are quiet at first.  A level adjustment comes at ~00:42 into Mozambique.
About [01:25] of downtime between the last "Driver" and "My Soul" (at end of "Driver (x4)" track).
About [03:00] of downtime between "Farmhouse" and the "Mike / Fishman jam" (at end of "Farmhouse" track).

------------------------------------------------------------------------------------------

SHNtool output:

    length     expanded size   cdr  WAVE problems filename
     1:42.37       18079868    ---   --   ---xx   ph2000-05-23-soundcheck-t01.flac
     5:34.49       59032892    ---   --   ---xx   ph2000-05-23-soundcheck-t02.flac
     2:17.46       24275036    ---   --   ---xx   ph2000-05-23-soundcheck-t03.flac
     5:15.09       55587212    ---   --   ---xx   ph2000-05-23-soundcheck-t04.flac
     3:53.25       41160044    ---   --   ---xx   ph2000-05-23-soundcheck-t05.flac
     7:07.65       75475724    ---   --   ---xx   ph2000-05-23-soundcheck-t06.flac
     8:36.26       91083596    ---   --   ---xx   ph2000-05-23-soundcheck-t07.flac
     2:36.63       27666620    ---   --   ---xx   ph2000-05-23-soundcheck-t08.flac
     3:15.40       34492124    ---   --   ---xx   ph2000-05-23-soundcheck-t09.flac
     3:32.69       37559132    ---   --   ---xx   ph2000-05-23-soundcheck-t10.flac
     5:27.02       57687548    ---   --   ---xx   ph2000-05-23-soundcheck-t11.flac
     7:39.45       81073484    ---   --   ---xx   ph2000-05-23-soundcheck-t12.flac
     2:44.49       29044892    ---   --   ---xx   ph2000-05-23-soundcheck-t13.flac
    59:44.00      632218172 B                     (totals for 13 files, 0.4067 overall compression ratio)

Show Checksums
all_ffp
ph2000-05-23-soundcheck-t01.flac:4ee3f07f7660c054e22ee283fb72c100
ph2000-05-23-soundcheck-t02.flac:3abf07e1671a21147fea60c4c988d651
ph2000-05-23-soundcheck-t03.flac:b675d56301c50dcb3311c6453c424040
ph2000-05-23-soundcheck-t04.flac:baa62149d8eaf7e5565ce0dac34035e2
ph2000-05-23-soundcheck-t05.flac:89da001f7ca7c1fe4d237d4a138da1b0
ph2000-05-23-soundcheck-t06.flac:9243ea050450ab95b5d41ba008deb7da
ph2000-05-23-soundcheck-t07.flac:9f5c446f3809d83feea3b4b02b541ed4
ph2000-05-23-soundcheck-t08.flac:394cc7af184b72d212955376eecb636d
ph2000-05-23-soundcheck-t09.flac:0e5afd8809e0c98503cf496f70f07004
ph2000-05-23-soundcheck-t10.flac:81de255afa5e5a67dd4618a093b3e316
ph2000-05-23-soundcheck-t11.flac:f898d2e4d414159a8bdda194e1cc5c36
ph2000-05-23-soundcheck-t12.flac:1ec779b6fc2718d8dc285ee730458957
ph2000-05-23-soundcheck-t13.flac:8f71e1f639f85fa942b312e0c9b42187
all_wav_md5
22e821e0479ce736b26683523f6cb0ab *ph2000-05-23-soundcheck-t01.wav
e9dfec029e8a7e077e63ee0956b2d98a *ph2000-05-23-soundcheck-t02.wav
7db1555798ef2958378bbc4e2a71e4cc *ph2000-05-23-soundcheck-t03.wav
650c07febc6cd35582bb6e9d16878163 *ph2000-05-23-soundcheck-t04.wav
e2a5d61363f63121622b8caba98fdfe4 *ph2000-05-23-soundcheck-t05.wav
a1a1c53cbf160aa7c4f645b4efd8ea0c *ph2000-05-23-soundcheck-t06.wav
7785a942449b3bd208554f4864cdfe6b *ph2000-05-23-soundcheck-t07.wav
9cdf515a1deb831d9be8ccef48595098 *ph2000-05-23-soundcheck-t08.wav
96115e4615565e0b8d3c121ceeea6fe9 *ph2000-05-23-soundcheck-t09.wav
33c103e4bef84ef11dc9dbbaea299078 *ph2000-05-23-soundcheck-t10.wav
dae32210efd0917ef8cf262d54ce4ad0 *ph2000-05-23-soundcheck-t11.wav
0678875f6886d63677ee627c599dba47 *ph2000-05-23-soundcheck-t12.wav
0a415cce88425915d13def25bbeeeeba *ph2000-05-23-soundcheck-t13.wav

Comments
Add Comment
Other Sources (comments)
via lemon2; no info file-... (0) Schoeps m222 (tubes)/mk41>... (2) 3-disc retracking of I.... (2) B&K 4011'S (Ron Dalton's... (2) FOB Schoeps mk4 > kc5 >... (0) SBD > CD; CD > EAC > WAV >... (7) SBD > DAT(?) > cd > eac > flac (5) B&K 4021 > Apogee AD-1000 >... (0) (FOB) Schoeps mk4 > kc5 >... (0) SBD/AUD matrix; mixed by... (0) flac16; Cable TV... (0)
Date User Comment