Browse Collections Artists Sources   Search Dates

Add Show    List Management    Help


Phish 06/29/00
PNC Bank Arts Center, Holmdel, NJ
Comments Add Comment    Source Collectors    Add to Collection    Add to Want List    History
Source # 90593 Other Sources
Entered by Jason Sobel
Checksums all_ffp , all_wav_md5
Disc Counts 2 / 3
Media Size
Date Circulated
Date Added
03/05/2008
03/05/2008
Source Summary B&K 4021 > Apogee AD-1000 > HHb PDR-1000 (@ 44.1 kHz); Tascam DA-20MKII > Tascam HD-P2 > WaveLab 5.01b (fades) > CD Wave v1.96.1 > FLAC v1.2.1 (Level 8); Taped by Eric Vandercar; Transferred by Jason Sobel 
Source Information - Download Text | Download Zip
Phish
June 29, 2000
PNC Bank Arts Center
Holmdel, NJ

source:
B&K 4021 > Apogee AD-1000 > HHb PDR-1000 (@ 44.1 kHz)

transfer:
Tascam DA-20MKII > Tascam HD-P2 > CF card > usb 2.0 > pc > WaveLab 5.01b (fades) > CD Wave v1.96.1 > FLAC v1.2.1 (Level 8)

FLAC tags added with metaflac v1.2.1

recorded by Eric Vandercar
transferred by Jason Sobel ([email protected])
seeded March 5, 2008

notes:
Big thanks to Eliot Byron for letting me borrow his DATs!

Disc 1 - [53:12]
Set I
01 - [07:05] - Funky Bitch >
02 - [06:49] - Wilson
03 - [12:36] - Limb by Limb
04 - [18:25] - Drowned ->
05 - [08:17] - Rock and Roll

Disc 2 - [44:50]
Set II
01 - [14:35] - Birds of a Feather ->
02 - [04:06] - Catapult >
03 - [06:56] - Heavy Things
04 - [19:13] - Sand

Disc 3 - [58:59]
Set II continued
01 - [11:19] - Meatstick >
02 - [05:43] - Cities ->
03 - [03:37] - Walk Away >
04 - [15:11] - Run Like an Antelope >
05 - [05:21] - Frankenstein
06 - [08:51] - Wading in the Velvet Sea
07 - [08:57] - (encore) Character Zero

note:
there was a cut on the DAT during the encore break.
I cross-faded the short crowd noise that was there between Velvet Sea and Character Zero to make it seem seamless.

------------------------------------------------------------------------------------------

SHNtool len mode output:

    length     expanded size   cdr  WAVE problems filename
     7:04.55       74923004    ---   --   ---xx   ph2000-06-29d1t01.flac
     6:49.08       72166460    ---   --   ---xx   ph2000-06-29d1t02.flac
    12:36.36      133443116    ---   --   ---xx   ph2000-06-29d1t03.flac
    18:24.65      194898524    ---   --   ---xx   ph2000-06-29d1t04.flac
     8:16.59       87633212    ---   --   ---xx   ph2000-06-29d1t05.flac
    14:34.56      154305356    ---   --   ---xx   ph2000-06-29d2t01.flac
     4:06.33       43472060    ---   --   ---xx   ph2000-06-29d2t02.flac
     6:55.46       73314236    ---   --   ---xx   ph2000-06-29d2t03.flac
    19:13.08      203408060    ---   --   ---xx   ph2000-06-29d2t04.flac
    11:18.73      119770940    ---   --   ---xx   ph2000-06-29d3t01.flac
     5:42.40       60422924    ---   --   ---xx   ph2000-06-29d3t02.flac
     3:36.52       38224748    ---   --   ---xx   ph2000-06-29d3t03.flac
    15:11.21      160749836    ---   --   ---xx   ph2000-06-29d3t04.flac
     5:21.24       56680892    ---   --   ---xx   ph2000-06-29d3t05.flac
     8:51.02       93673148    ---   --   ---xx   ph2000-06-29d3t06.flac
     8:57.20       94773884    ---   --   ---xx   ph2000-06-29d3t07.flac
   157:00.73     1661860400 B                     (totals for 16 files, 0.5311 overall compression ratio)
Show Checksums
all_ffp
ph2000-06-29d1t01.flac:be76b5c3bf939423422f2c9c6199b848
ph2000-06-29d1t02.flac:f0ac81e0c554a1e6cfcd712c7487702c
ph2000-06-29d1t03.flac:37c0f9350da182bc0ac0737d1ee1fc9a
ph2000-06-29d1t04.flac:235aa14c614a8ce5603290f6a0d2c0c6
ph2000-06-29d1t05.flac:029de7f97f97895b74ca7b5b59dc9de6
ph2000-06-29d2t01.flac:94427cf0a48575242c015531a5564cad
ph2000-06-29d2t02.flac:23ac070b94f85b226ffe7219d6fef9e7
ph2000-06-29d2t03.flac:244b96032648b8151cbaa6f3a003ff6e
ph2000-06-29d2t04.flac:1bdb0872b9d994cae1d6ff72a5480172
ph2000-06-29d3t01.flac:63bfa3a436f2deec2cf098e666c1a8e6
ph2000-06-29d3t02.flac:cd14851c3864d9fe8df3c71a1cf24f78
ph2000-06-29d3t03.flac:9692a2399b80bc94f8e8fda4999642dd
ph2000-06-29d3t04.flac:f490f266c95002bcf409d727f895d189
ph2000-06-29d3t05.flac:6fa21a6dd09b39ec77c8726b6e74e512
ph2000-06-29d3t06.flac:34842f265ffdcdd3284de5605648fa25
ph2000-06-29d3t07.flac:d525b02c6c3181873bed668fa098f07f
all_wav_md5
bdcadc6e71d5bbc3ff0b53005bf4aeb9 *ph2000-06-29d1t01.wav
3d9ea65cb94b2c3a021f3aec7a3f3e42 *ph2000-06-29d1t02.wav
682121947a0e4fb739fb7e5bd37e3a93 *ph2000-06-29d1t03.wav
fa29ec7464838e08f6c652555c06ba80 *ph2000-06-29d1t04.wav
eae46efcf4db787d418ef14acd553e28 *ph2000-06-29d1t05.wav
d07d5946d2df879b3b2f08bdf860ff0a *ph2000-06-29d2t01.wav
922a8f9c224a7befc78ef3f39722380b *ph2000-06-29d2t02.wav
18da1bddee282d33b00a5f33dff8c59b *ph2000-06-29d2t03.wav
e283a8c37e200aa484e64183a4ea9470 *ph2000-06-29d2t04.wav
6b0be0794ae4c888a20d1039da51893b *ph2000-06-29d3t01.wav
d7768e3fd6f0338d55afb56733266b07 *ph2000-06-29d3t02.wav
82d6884d34c387359a5efaa1de7645c3 *ph2000-06-29d3t03.wav
68fd4e52720e82f2affc8e27f58f1c67 *ph2000-06-29d3t04.wav
d1f0b6d23168abce423ecabdf09045a5 *ph2000-06-29d3t05.wav
6cde11f17d89591a14e98b341109a0c9 *ph2000-06-29d3t06.wav
15275c1a5ee3416d663036ac6049e01f *ph2000-06-29d3t07.wav

Comments
Add Comment
Other Sources (comments)
Neumann ak40s > Neumann... (5) AKG 480/ck63 > Graham... (0) B&K 4011 (dfc, 1st row ots)... (1) Neumann TLM170r (split 21')... (0) Neumann U89 (hypercard) >... (0) Schoeps CMC6/MK4v ->... (2) flac16; 48kHz;... (0) flac16, 48kHz;... (0)
Date User Comment