Browse Collections Artists Sources   Search Dates

Add Show    List Management    Help


Phish 05/23/00
Roseland Ballroom, New York, NY
Comments Add Comment    Source Collectors    Add to Collection    Add to Want List    History
Source # 90862 Other Sources
Entered by Jason Sobel
Checksums all_ffp , all_wav_md5
Disc Counts 2 / 3
Media Size
Date Circulated
Date Added
03/17/2008
03/17/2008
Source Summary B&K 4021 > Apogee AD-1000 > Sony PCM-M1 (@ 44.1 kHz); Tascam DA-20MKII > Tascam HD-P2 > Samplitude SE v9.1.1 (fades, tracking) > FLAC v1.2.1 (Level 8); Taped by Eric Vandercar; Transferred by Jason Sobel 
Source Information - Download Text | Download Zip
Phish
May 23, 2000
Roseland Ballroom
New York, NY

source:
B&K 4021 > Apogee AD-1000 > Sony PCM-M1 (@ 44.1 kHz)
(recorded from the taper's section, front & center)

transfer:
Tascam DA-20MKII > Tascam HD-P2 > CF card > usb 2.0 > pc > Samplitude SE v9.1.1 (fades, tracking) > FLAC v1.2.1 (Level 8)

FLAC tags added with metaflac v1.2.1

recorded by Eric Vandercar
transferred by Jason Sobel ([email protected])
seeded March 17, 2008

notes:
Big thanks to Eliot Byron for letting me borrow his first gen DAT clones!

Disc 1 - [76:54]
Set I
01 - [09:11] - AC/DC Bag
02 - [07:25] - Wilson
03 - [08:26] - First Tube
04 - [16:05] - Ya Mar >
05 - [07:01] - Mike's Song ->
06 - [08:26] - Simple >
07 - [09:12] - It's Ice
08 - [05:36] - When The Circus Comes
09 - [05:33] - Back on the Train

Disc 2 - [63:06]
Set I continued
01 - [10:48] - Gotta Jibboo
02 - [10:18] - Taste
03 - [05:42] - Sleeping Monkey
Set II
04 - [08:52] - Punch You In The Eye
05 - [10:39] - Twist
06 - [07:05] - Waste
07 - [09:42] - Piper

Disc 3 - [60:56]
Set II continued
01 - [19:09] - You Enjoy Myself
02 - [13:20] - Run Like an Antelope
03 - [03:15] - Train Song
04 - [09:18] - Bug
05 - [04:00] - encore break
06 - [05:37] - Boogie On Reggae Woman
07 - [06:17] - Cavern

-------------------------------------------------------------------------------------------

SHNtool len mode output:

    length     expanded size    cdr  WAVE problems  fmt   ratio  filename
     9:10.50       97137644 B   ---   --   ---xx   flac  0.5530  ph2000-05-23d1t01.flac
     7:25.12       78526268 B   ---   --   ---xx   flac  0.5620  ph2000-05-23d1t02.flac
     8:26.09       89279612 B   ---   --   ---xx   flac  0.6000  ph2000-05-23d1t03.flac
    16:04.40      170143724 B   ---   --   ---xx   flac  0.5324  ph2000-05-23d1t04.flac
     7:01.17       74304428 B   ---   --   ---xx   flac  0.5885  ph2000-05-23d1t05.flac
     8:25.40       89176124 B   ---   --   ---xx   flac  0.5623  ph2000-05-23d1t06.flac
     9:11.74       97370492 B   ---   --   ---xx   flac  0.5478  ph2000-05-23d1t07.flac
     5:35.55       59223404 B   ---   --   ---xx   flac  0.5036  ph2000-05-23d1t08.flac
     5:32.43       58665980 B   ---   --   ---xx   flac  0.5411  ph2000-05-23d1t09.flac
    10:47.47      114241388 B   ---   --   ---xx   flac  0.5664  ph2000-05-23d2t01.flac
    10:17.37      108925868 B   ---   --   ---xx   flac  0.5534  ph2000-05-23d2t02.flac
     5:42.32       60404108 B   ---   --   ---xx   flac  0.5246  ph2000-05-23d2t03.flac
     8:51.71       93835436 B   ---   --   ---xx   flac  0.5517  ph2000-05-23d2t04.flac
    10:39.25      112778444 B   ---   --   ---xx   flac  0.5364  ph2000-05-23d2t05.flac
     7:05.04       74979452 B   ---   --   ---xx   flac  0.5221  ph2000-05-23d2t06.flac
     9:42.13      102695420 B   ---   --   ---xx   flac  0.5560  ph2000-05-23d2t07.flac
    19:08.65      202660124 B   ---   --   ---xx   flac  0.4987  ph2000-05-23d3t01.flac
    13:19.43      141044780 B   ---   --   ---xx   flac  0.5745  ph2000-05-23d3t02.flac
     3:15.07       34414508 B   ---   --   ---xx   flac  0.4394  ph2000-05-23d3t03.flac
     9:17.59       98393612 B   ---   --   ---xx   flac  0.5585  ph2000-05-23d3t04.flac
     4:00.05       42347804 B   ---   --   ---xx   flac  0.5002  ph2000-05-23d3t05.flac
     5:36.56       59402156 B   ---   --   ---xx   flac  0.5406  ph2000-05-23d3t06.flac
     6:17.34       66582812 B   ---   --   ---xx   flac  0.6067  ph2000-05-23d3t07.flac
   200:55.13     2126533588 B                            0.5464  (23 files)
Show Checksums
all_ffp
ph2000-05-23d1t01.flac:f7b8101ea80451e4e675897e9a0479d9
ph2000-05-23d1t02.flac:a127b57c5e44a3dcaaa9704b9c2ab441
ph2000-05-23d1t03.flac:c80566b0ddf14d69efc48944b0164123
ph2000-05-23d1t04.flac:d040880dcfd7363b66598823240b6e97
ph2000-05-23d1t05.flac:c4ef3fca52061dc947fb3409bb3bb51f
ph2000-05-23d1t06.flac:556f719f84ff9e7563846e25e597eb37
ph2000-05-23d1t07.flac:c9ddce2c3e801aab82baf7f3d2f17b04
ph2000-05-23d1t08.flac:2fb69d40009b6b79e6c99f3011d232b7
ph2000-05-23d1t09.flac:5a0363a57b56da2a92277b29baf82de6
ph2000-05-23d2t01.flac:c65a039f1f31346b46a170dfbe434f8f
ph2000-05-23d2t02.flac:f118ac6712faf56388ce42d8f82e0a2d
ph2000-05-23d2t03.flac:a6a1ab7b79f30970f6a788b6f15932cb
ph2000-05-23d2t04.flac:8d9f8bb139f5d96190cabe2fe29bb20f
ph2000-05-23d2t05.flac:94c2c75dd116743a53d56d8c80e8e11b
ph2000-05-23d2t06.flac:027399119160ea6c697d5311097d529a
ph2000-05-23d2t07.flac:b7b274b72905a5ec042c17f6325d377c
ph2000-05-23d3t01.flac:5b7448543f749dedb77d178115073b18
ph2000-05-23d3t02.flac:b6e7fb6f219dbb2c8fd18c6ac1c49b90
ph2000-05-23d3t03.flac:cf60e4d76eb4165450a21fb36f65ab70
ph2000-05-23d3t04.flac:a147272396a70c8b92de1be1ffc63688
ph2000-05-23d3t05.flac:3b0dda522298a93607b86179b4a343c5
ph2000-05-23d3t06.flac:c5373ae815109b3d52ea6c7f07548486
ph2000-05-23d3t07.flac:bf788f1a5e6489968e3423d989d3e29a
all_wav_md5
fd4a959431a4d07b3fa597c9d636a05d *ph2000-05-23d1t01.wav
db456383e646e300740ba8ad107d68ff *ph2000-05-23d1t02.wav
5264c6a2996327340ddaca161293c6a9 *ph2000-05-23d1t03.wav
3be5f84448bb7ef7b462b58929e23a00 *ph2000-05-23d1t04.wav
4240a93725c448a0ecc240dd355cbc6e *ph2000-05-23d1t05.wav
a6084b971f9d5d861cd8af48200b0a2f *ph2000-05-23d1t06.wav
5eebf17d4ed3213aecd56f67195edc81 *ph2000-05-23d1t07.wav
73e0773d8c19527ccd9d58ebf77e3d21 *ph2000-05-23d1t08.wav
1da1ba5650d2c5640f60d4a1a3bc073e *ph2000-05-23d1t09.wav
91e373461d381ff6760bad7d0ba62acf *ph2000-05-23d2t01.wav
75256a600c77916d293fa2c03f544bb8 *ph2000-05-23d2t02.wav
e50d128610e5d6418ee1edba96e35951 *ph2000-05-23d2t03.wav
615fe20c6930523d81353bd7ffa9f05c *ph2000-05-23d2t04.wav
ee5d3be09303dd3b7aba666797379a12 *ph2000-05-23d2t05.wav
fbe01f7ea3e55d381420abb5ce0fd6e2 *ph2000-05-23d2t06.wav
9a3d1830cc9953804360958deffb3e1f *ph2000-05-23d2t07.wav
1b9f9cb4fd6db1a3c06b3c6e50f071aa *ph2000-05-23d3t01.wav
06000e55be2be8153bca6f826324df5f *ph2000-05-23d3t02.wav
d9a05a7be32e0cabae97bed9b8a2afe2 *ph2000-05-23d3t03.wav
81cd2f5554daf4ed28e1024dcc1f3ad4 *ph2000-05-23d3t04.wav
b5b1f648f047b67d9f31766263957d1b *ph2000-05-23d3t05.wav
781dd1745665a675fc2fbde23faec2a3 *ph2000-05-23d3t06.wav
b5bf744f2b59ee1966f214fd36b927d7 *ph2000-05-23d3t07.wav

Comments
Add Comment
Other Sources (comments)
via lemon2; no info file-... (0) Schoeps m222 (tubes)/mk41>... (2) 3-disc retracking of I.... (2) B&K 4011'S (Ron Dalton's... (2) FOB Schoeps mk4 > kc5 >... (0) SBD > CD; CD > EAC > WAV >... (7) SBD > DAT(?) > cd > eac > flac (5) (soundcheck only) Schoeps... (0) (FOB) Schoeps mk4 > kc5 >... (0) SBD/AUD matrix; mixed by... (0) flac16; Cable TV... (0)
Date User Comment