Browse Collections Artists Sources   Search Dates

Add Show    List Management    Help


Grateful Dead 11/19/66
Fillmore Auditorium, San Francisco, CA
Comments Add Comment    Source Collectors    Add to Collection    Add to Want List    History
Source # 94106 Other Sources
Entered by Matt Vernon
Checksums ffp , flac-md5
Disc Counts 1 / 1
Media Size
Date Circulated
Date Added
08/20/2008
08/20/2008
Source Summary flac16; Recording Info:SBD -> Master Reel -> Dat -> CD; Transfer Info:CD -> Samplitude Professional v10.1 -> FLAC; All Transfers and Mastering By Charlie Miller 
  Archive
Source Information - Download Text | Download Zip
Grateful Dead - November 19, 1966
Fillmore Auditorium - San Francisco, CA

Recording Info:
SBD -> Master Reel -> Dat -> CD

Transfer Info:
CD -> Samplitude Professional v10.1 -> FLAC
(1 Disc Audio / 1 Disc FLAC)

All Transfers and Mastering By Charlie Miller
[email protected]
August 20, 2008

Notes:
-- Dancin' In The Street cut due to reel flip
-- Slight overburn needed to fit onto one disc

Set 1:
d1t01 - Introduction
d1t02 - Cold Rain And Snow
d1t03 - Hi-Heel Sneakers
d1t04 - Pain In My Heart
d1t05 - Beat It On Down The Line
d1t06 - Cream Puff War
d1t07 - The Same Thing
d1t08 - He Was A Friend Of Mine
d1t09 - Dancin' In The Street

Set 2:
d1t10 - Smokestack Lightnin' ->
d1t11 - I'm A King Bee
d1t12 - In The Midnight Hour


SHNTOOL OUTPUT:
    length     expanded size   cdr  WAVE problems filename
     0:41.48        7345340    ---   --   -----   gd66-11-19d1t01.wav
     3:19.44       35207132    ---   --   -----   gd66-11-19d1t02.wav
     4:32.30       48051404    ---   --   -----   gd66-11-19d1t03.wav
     3:55.36       41538716    ---   --   -----   gd66-11-19d1t04.wav
     3:10.67       33673628    ---   --   -----   gd66-11-19d1t05.wav
     8:08.36       86167916    ---   --   -----   gd66-11-19d1t06.wav
    10:44.28      113667500    ---   --   -----   gd66-11-19d1t07.wav
     5:01.16       53134076    ---   --   -----   gd66-11-19d1t08.wav
     6:20.53       67156700    ---   --   -----   gd66-11-19d1t09.wav
     9:06.15       96349724    ---   --   -----   gd66-11-19d1t10.wav
     5:49.45       61669484    ---   --   -----   gd66-11-19d1t11.wav
    19:22.54      205103852    ---   --   -----   gd66-11-19d1t12.wav
    80:13.22      849065472 B                     (totals for 12 files)
Show Checksums
ffp
gd66-11-19d1t01.flac:5497745df821ce9e4d270a5b46972bc5
gd66-11-19d1t02.flac:6cf3b13470636c1137c9bbebdf155705
gd66-11-19d1t03.flac:fda24896eaf2aff6b7ab8d8f6127ed3c
gd66-11-19d1t04.flac:1189badb020734ceb7d67e3998e4a917
gd66-11-19d1t05.flac:b0e92382aa9ebe2537954631a2c3d586
gd66-11-19d1t06.flac:8cded96b6b1f39013d0caec95cdb66fe
gd66-11-19d1t07.flac:57eed29bd83f1782a42420a5e22f5b39
gd66-11-19d1t08.flac:6b4a8743bd64beeee08e20cacd063f87
gd66-11-19d1t09.flac:6aae8b07bc587991b103b419970e9932
gd66-11-19d1t10.flac:03210d78f23935b670dc1e0388f75d6b
gd66-11-19d1t11.flac:98c585dd5b08140a3ecbeed62027bd58
gd66-11-19d1t12.flac:f508cd8dd36f2fb07d528e2938ce7d9e
flac-md5
ae7e5c7b23ce169e516e534b6548ef38 *gd66-11-19d1t01.flac
59f1913169bd5b7e6e849d6166b68d07 *gd66-11-19d1t02.flac
b25a45b50595980e83572957139de22b *gd66-11-19d1t03.flac
955058bdb6ef55dbe3760ddd7c2a50a3 *gd66-11-19d1t04.flac
1f66892c8a7dc414e6bb682d448ff980 *gd66-11-19d1t05.flac
f19634f89158d4064aaad1a2a6cdd41d *gd66-11-19d1t06.flac
75f36d85e974530dcebb29584a0fd755 *gd66-11-19d1t07.flac
afe44ce5c00021d248a59b58d23b527a *gd66-11-19d1t08.flac
42a08bca07b8a9d9e3208857cf4a2e9b *gd66-11-19d1t09.flac
c21183c83a038e9346b7f2cb4960af0a *gd66-11-19d1t10.flac
2dca61187631feaebad33a667c1ff588 *gd66-11-19d1t11.flac
fd16c8f612b3fdf9992df55109b3a1a6 *gd66-11-19d1t12.flac

Comments
Add Comment
Other Sources (comments)
SBD; liberated bootleg... (3) It Crawled Out of the... (3) flac16; Speed... (0)
Date User Comment
08/21/2008 A_Dude Although the Dancing in the Streets track on the KSAN Vaults shn set is 77 seconds longer, that turns out to all be tuning, and the song is cut off at the same point.

So, this is the definitive version of the show. since it is cleaner sounding than that version (in my opinion).