Browse Collections Artists Sources   Search Dates

Add Show    List Management    Help


Grateful Dead 10/02/88
Shoreline Amphitheatre, Mountain View, CA
Comments Add Comment    Source Collectors    Add to Collection    Add to Want List    History
Source # 94479 Other Sources
Entered by dr.unclear
Checksums flac-md5 , ffp , st5
Disc Counts 2 / 3
Media Size
Date Circulated
Date Added
09/18/2008
09/09/2008
Source Summary flac16; Beyer M-88's w/D6 OTS MAC>D6>HD>Audacity>CDWave>TLH 
  Archive
Source Information - Download Text | Download Zip
Grateful Dead on Sunday October 2nd,1988
Shoreline Amphitheatre
Mountain View,California,USA

Beyerdynamic M-88's XY60 with
Sony WMD6-C
Maxell MX 90 No nr

Offical taping section front of lawn
140 feet away,dead center
Mic stand at 7 feet

Master>D6>HD>Audacity>CDWave>TLH
Recorded and transfered by Russ Cansler

set 1 Disc 1
01) tuning [04:04]
02) Cold Rain and Snow [06:16]
03) Minglewood Blues [08:20]
04) Fennario [06:57]
05) Memphis Blues [11:26]
06) To Lay Me Down [07:07] tape flip
07) tuning [00:48]
08) Box of Rain [05:00]
09) Deal [06:59]
total 57:03

set 2 Disc 2
01) tuning [03:00]
02) Crazy Fingers [07:31]
03) Samson and Delilah [08:13]
04) Jam [04:31]
05) Estimated Prophet [11:12]
06) Eyes of the World [07:56]
07) Drums [04:34] tape flip
total 47:02

set 2 cont Disc 3
01) Drums [05:14]
02) Phil Solo [01:19]
03) Space [12:24]
04) Gimme Some Lovin [04:35]
05) Stella Blue [08:15]
06) Throwin Stones [10:29]
07) Not Fade Away/ [04:34] tape flip
08)/Not Fade Away [01:54]
  encore
09) crowd>tuning [04:28]
10) Black Muddy River [06:37]

Jerry Garcia-Guitar,Vocals
Bob Weir-Rhythm Guitar,Vocals
Phil Lesh-Bass Guitar,Vocals
Billy Kreutzmann-Drums
Micky Hart-Percussion
Brent Mydland-Keyboards,Vocals

notes:Standout performance from begining to end
cut in Not Fade Away

shntool 3.0.4
Copyright (C) 2000-2007 Jason Jordan

    length     expanded size    cdr  WAVE problems  fmt   ratio  filename
     4:04.60       43182764 B   ---   --   ---xx   flac  0.4725  gd1988.10.02.d1t01.flac
     6:16.41       66422876 B   ---   --   ---xx   flac  0.5506  gd1988.10.02.d1t02.flac
     8:20.63       88348220 B   ---   --   ---xx   flac  0.5518  gd1988.10.02.d1t03.flac
     6:57.23       73612940 B   ---   --   ---xx   flac  0.5271  gd1988.10.02.d1t04.flac
    11:26.11      121036316 B   ---   --   ---xx   flac  0.5519  gd1988.10.02.d1t05.flac
     7:07.11       75348716 B   ---   --   ---xx   flac  0.5178  gd1988.10.02.d1t06.flac
     0:48.27        8530748 B   ---   --   ---xx   flac  0.4641  gd1988.10.02.d1t07.flac
     5:00.60       53061164 B   ---   --   ---xx   flac  0.5549  gd1988.10.02.d1t08.flac
     6:59.34       73991612 B   ---   --   ---xx   flac  0.5721  gd1988.10.02.d1t09.flac
     3:00.42       31850828 B   ---   --   ---xx   flac  0.4741  gd1988.10.02.d2t01.flac
     7:31.23       79610540 B   ---   --   ---xx   flac  0.5239  gd1988.10.02.d2t02.flac
     8:13.40       87059324 B   ---   --   ---xx   flac  0.5600  gd1988.10.02.d2t03.flac
     4:31.72       47973788 B   ---   --   ---xx   flac  0.5067  gd1988.10.02.d2t04.flac
    11:12.07      118557308 B   ---   --   ---xx   flac  0.5494  gd1988.10.02.d2t05.flac
     7:56.18       84008780 B   ---   --   ---xx   flac  0.5543  gd1988.10.02.d2t06.flac
     4:34.35       48415964 B   ---   --   ---xx   flac  0.5282  gd1988.10.02.d2t07.flac
     5:14.49       55504892 B   ---   --   ---xx   flac  0.5122  gd1988.10.02.d3t01.flac
     1:19.74       14109692 B   ---   --   ---xx   flac  0.4599  gd1988.10.02.d3t02.flac
    12:24.44      131345132 B   ---   --   ---xx   flac  0.4906  gd1988.10.02.d3t03.flac
     4:35.62       48655868 B   ---   --   ---xx   flac  0.5724  gd1988.10.02.d3t04.flac
     8:15.06       87332156 B   ---   --   ---xx   flac  0.5181  gd1988.10.02.d3t05.flac
    10:29.20      111002684 B   ---   --   ---xx   flac  0.5634  gd1988.10.02.d3t06.flac
     4:34.54       48460652 B   ---   --   ---xx   flac  0.5800  gd1988.10.02.d3t07.flac
     1:54.41       20206076 B   ---   --   ---xx   flac  0.5108  gd1988.10.02.d3t08.flac
     4:28.67       47432828 B   ---   --   ---xx   flac  0.5101  gd1988.10.02.d3t09.flac
     6:37.19       70075532 B   ---   --   ---xx   flac  0.5171  gd1988.10.02.d3t10.flac
   163:56.28     1735137400 B                            0.5343  (26 files)
Show Checksums
flac-md5
2ceeb04ee1bdcd95e53126df0fa0d188 *gd1988.10.02.d1t01.flac
116ed6c324b724534e2a73a6478aa5a4 *gd1988.10.02.d1t02.flac
ba11b443637ac5e810ad288adb146feb *gd1988.10.02.d1t03.flac
01243254267bf3eb7c656f021055ad31 *gd1988.10.02.d1t04.flac
844245d805cce8457c50f4f2f45c2f8c *gd1988.10.02.d1t05.flac
6d862342b579649e389a1bce37598882 *gd1988.10.02.d1t06.flac
8f87da6011a9e3493940a1800a3a6264 *gd1988.10.02.d1t07.flac
328057f1db01448d8a78fe611715af7a *gd1988.10.02.d1t08.flac
f45af8dbbf8ab8b22bde7d9f6317a693 *gd1988.10.02.d1t09.flac
e46f6cf6f4b7c66452fa2cf1970c2273 *gd1988.10.02.d2t01.flac
f89afc37a5ca9d0fcf4d70d2bd76cde1 *gd1988.10.02.d2t02.flac
9b2d05011662081a105acc12fa71da4f *gd1988.10.02.d2t03.flac
2771af4a8b0f7686e59ed34dab3979f9 *gd1988.10.02.d2t04.flac
61653e3e825e7ac3e3ad90bdf29fdd27 *gd1988.10.02.d2t05.flac
721fb32bf45d671b019cec9191695d4a *gd1988.10.02.d2t06.flac
49e11f4e8fc64572fc1ae16000dae2ca *gd1988.10.02.d2t07.flac
7d9a5f6b1aa1be99b3cac1fb0734aa1c *gd1988.10.02.d3t01.flac
c0ea97cb468a8276967ca72d01ecb0b5 *gd1988.10.02.d3t02.flac
3855bf48a7884f084bd1390450b8b382 *gd1988.10.02.d3t03.flac
1ab5abd90b05f6cb3cf012dec9c22c91 *gd1988.10.02.d3t04.flac
d36e7ef10d4072db779124fbc790d121 *gd1988.10.02.d3t05.flac
33517e1b0511c70749d02ac662961633 *gd1988.10.02.d3t06.flac
bf58116c6c5f576164e5af7ef21dc869 *gd1988.10.02.d3t07.flac
acfa42232f7ce8475defb9f3742a1ab9 *gd1988.10.02.d3t08.flac
60b4d65775aea0f86349758b0c8c4225 *gd1988.10.02.d3t09.flac
f3ce80fa7980dafe7e752ef05e35b754 *gd1988.10.02.d3t10.flac
ffp
gd1988.10.02.d1t01.flac:9ac5a582efa7c75cce6363b917ce6bc7
gd1988.10.02.d1t02.flac:d4daa0c5d5231a5b01c282d098877859
gd1988.10.02.d1t03.flac:52bb4455f36114d27c292f09e3820ccf
gd1988.10.02.d1t04.flac:e55aa124660a6d2bb7d87c10eef415fd
gd1988.10.02.d1t05.flac:339aa4f17320d2af38d1dc21ebdff1fa
gd1988.10.02.d1t06.flac:82b39a6952d59a4c936278bd8c00b6a9
gd1988.10.02.d1t07.flac:b3395af48ce64f6a6709888bb83ea895
gd1988.10.02.d1t08.flac:0989a478a6580d335feeed570d51294f
gd1988.10.02.d1t09.flac:07200b324bf24ddf95d1d22b3e612d25
gd1988.10.02.d2t01.flac:a81a0a4a12c2677e4317ff59f6224488
gd1988.10.02.d2t02.flac:98dd1309620d80f945964f1804f5a81e
gd1988.10.02.d2t03.flac:1db7b71b5fee5b7185c6b45685991224
gd1988.10.02.d2t04.flac:6e49bb079c05e0ed2ce67ce7b5cd0ee2
gd1988.10.02.d2t05.flac:ad496c2b14ac087d48f6afd68f061d15
gd1988.10.02.d2t06.flac:0f2e0346d3641b176c059362da4e4126
gd1988.10.02.d2t07.flac:948714682851dafa477f2cda1523e427
gd1988.10.02.d3t01.flac:f218e133d0d49d6e3ef3925a311e3731
gd1988.10.02.d3t02.flac:ddbf03740cf8900a1b7a76033a912ab7
gd1988.10.02.d3t03.flac:6d9135c7582cf8362aa27348138b9bec
gd1988.10.02.d3t04.flac:6ef0f146c5d5e4282ac3e0f3d0ee3e39
gd1988.10.02.d3t05.flac:f8a81e152424b6534e87c294ab850f49
gd1988.10.02.d3t06.flac:9cc82aa458271267ceb03e6a79f019d0
gd1988.10.02.d3t07.flac:85f895c9e2aedfc487e635d1acfe6194
gd1988.10.02.d3t08.flac:467ea0bfbf600e8824722126536d2bd2
gd1988.10.02.d3t09.flac:5f36d066e29d66c141a6b48464d6b529
gd1988.10.02.d3t10.flac:b4d829881ba0c2fd017fc15bf88ae33f
st5
9ac5a582efa7c75cce6363b917ce6bc7 [shntool] gd1988.10.02.d1t01.flac
d4daa0c5d5231a5b01c282d098877859 [shntool] gd1988.10.02.d1t02.flac
52bb4455f36114d27c292f09e3820ccf [shntool] gd1988.10.02.d1t03.flac
e55aa124660a6d2bb7d87c10eef415fd [shntool] gd1988.10.02.d1t04.flac
339aa4f17320d2af38d1dc21ebdff1fa [shntool] gd1988.10.02.d1t05.flac
82b39a6952d59a4c936278bd8c00b6a9 [shntool] gd1988.10.02.d1t06.flac
b3395af48ce64f6a6709888bb83ea895 [shntool] gd1988.10.02.d1t07.flac
0989a478a6580d335feeed570d51294f [shntool] gd1988.10.02.d1t08.flac
07200b324bf24ddf95d1d22b3e612d25 [shntool] gd1988.10.02.d1t09.flac
a81a0a4a12c2677e4317ff59f6224488 [shntool] gd1988.10.02.d2t01.flac
98dd1309620d80f945964f1804f5a81e [shntool] gd1988.10.02.d2t02.flac
1db7b71b5fee5b7185c6b45685991224 [shntool] gd1988.10.02.d2t03.flac
6e49bb079c05e0ed2ce67ce7b5cd0ee2 [shntool] gd1988.10.02.d2t04.flac
ad496c2b14ac087d48f6afd68f061d15 [shntool] gd1988.10.02.d2t05.flac
0f2e0346d3641b176c059362da4e4126 [shntool] gd1988.10.02.d2t06.flac
948714682851dafa477f2cda1523e427 [shntool] gd1988.10.02.d2t07.flac
f218e133d0d49d6e3ef3925a311e3731 [shntool] gd1988.10.02.d3t01.flac
ddbf03740cf8900a1b7a76033a912ab7 [shntool] gd1988.10.02.d3t02.flac
6d9135c7582cf8362aa27348138b9bec [shntool] gd1988.10.02.d3t03.flac
6ef0f146c5d5e4282ac3e0f3d0ee3e39 [shntool] gd1988.10.02.d3t04.flac
f8a81e152424b6534e87c294ab850f49 [shntool] gd1988.10.02.d3t05.flac
9cc82aa458271267ceb03e6a79f019d0 [shntool] gd1988.10.02.d3t06.flac
85f895c9e2aedfc487e635d1acfe6194 [shntool] gd1988.10.02.d3t07.flac
467ea0bfbf600e8824722126536d2bd2 [shntool] gd1988.10.02.d3t08.flac
5f36d066e29d66c141a6b48464d6b529 [shntool] gd1988.10.02.d3t09.flac
b4d829881ba0c2fd017fc15bf88ae33f [shntool] gd1988.10.02.d3t10.flac

Comments
Add Comment
Other Sources (comments)
SBD> Cass> DAT> CDR>... (1) flac16; Seamless fix... (1) flac24; Set 2... (0) flac16; Set 2... (0)
Date User Comment