Browse Collections Artists Sources   Search Dates

Add Show    List Management    Help


Trey Anastasio 10/21/08
Lupo's Heartbreak Hotel, Providence, RI
Comments Add Comment    Source Collectors    Add to Collection    Add to Want List    History
Source # 95395 Other Sources
Entered by Matt Vernon
Checksums 16bit-FLAC-md5 , 24bit-FLAC-md5
Disc Counts 2 / 3
Media Size
Date Circulated
Date Added
10/22/2008
10/22/2008
Source Summary AKG c460b/ck63 > Mini-MP > R-4 BM T-Mod(24/96); Sound Frorge 9.0 > TLH > Flac; Taped & Transfered by Ted Gakidis (NOTE: both 16 bit and 24 bit versions are available) 
Source Information - Download Text | Download Zip
***************************************
***   16 bit / 44.1 kHz info file   ***
***************************************


Trey Anastasio Band
2008-10-21
Lupo's Heartbreak Hotel
Providence RI

AKG c460b/ck63>a61(DINa,LOC,50'fs,10'up) > Mini-MP > R-4 BM T-Mod(24/96)
Wave > Sound Frorge 9.0(Fade,Track,Resample 16/44.1) > TLH > Flac

Taped, Transfered & Seeded by Ted Gakidis
[email protected]


Disc 1 - Set 1
01 intro
02 Come on Baby Lets Go Downtown >
03 Last Tube
04 Tube Top Flop
05 Sweet Dreams Melinda
06 Cayman Review
07 Ooh Child
08 Alaska
09 Backwards Down the Number Line
10 Gone


Disc 2 - Set 1 Cont.
01 Sand
Set 2
02 intro
03 Push on Til the Day
04 Gotta Jibboo
05 Drifting
06 Simple Twist Up Dave
07 Water in the [email protected]
08 Brian and [email protected]
09 Get Back on the [email protected]

Disc 3 - Set 2 Cont.
01 A Case of Ice and Snow
02 Tuesday
03 crowd
Encore:
04 First Tube > Jam*

@Acoustic
*w/ Billy Kreutzman , Oteil Burbridge(No Tony) & Scott Murawski



shntool 3.0.4
Copyright (C) 2000-2007 Jason Jordan

length expanded size cdr WAVE problems fmt ratio filename
0:25.06 4424156 B --- -- ---xx flac 0.3044 tab2008-10-21.c463b.d1t01.flac
4:00.05 42347804 B --- -- ---xx flac 0.5511 tab2008-10-21.c463b.d1t02.flac
13:04.14 138330572 B --- -- ---xx flac 0.5668 tab2008-10-21.c463b.d1t03.flac
3:48.20 40266284 B --- -- ---xx flac 0.4966 tab2008-10-21.c463b.d1t04.flac
9:27.30 100089404 B --- -- ---xx flac 0.5163 tab2008-10-21.c463b.d1t05.flac
7:09.18 75717980 B --- -- ---xx flac 0.5510 tab2008-10-21.c463b.d1t06.flac
6:54.58 73166060 B --- -- ---xx flac 0.5232 tab2008-10-21.c463b.d1t07.flac
10:20.03 109375100 B --- -- ---xx flac 0.5202 tab2008-10-21.c463b.d1t08.flac
8:03.50 85318844 B --- -- ---xx flac 0.5460 tab2008-10-21.c463b.d1t09.flac
5:37.63 59595020 B --- -- ---xx flac 0.5040 tab2008-10-21.c463b.d1t10.flac
11:59.46 126939836 B --- -- ---xx flac 0.5713 tab2008-10-21.c463b.d2t01.flac
0:40.11 7081916 B --- -- ---xx flac 0.3696 tab2008-10-21.c463b.d2t02.flac
10:23.30 109967804 B --- -- ---xx flac 0.5912 tab2008-10-21.c463b.d2t03.flac
16:02.23 169750940 B --- -- ---xx flac 0.5459 tab2008-10-21.c463b.d2t04.flac
8:01.47 84958988 B --- -- ---xx flac 0.5241 tab2008-10-21.c463b.d2t05.flac
9:05.27 96201548 B --- -- ---xx flac 0.5478 tab2008-10-21.c463b.d2t06.flac
3:10.73 33687740 B --- -- ---xx flac 0.4299 tab2008-10-21.c463b.d2t07.flac
3:22.24 35689292 B --- -- ---xx flac 0.4393 tab2008-10-21.c463b.d2t08.flac
5:16.64 55892972 B --- -- ---xx flac 0.5125 tab2008-10-21.c463b.d2t09.flac
9:53.56 104736956 B --- -- ---xx flac 0.5190 tab2008-10-21.c463b.d3t01.flac
8:00.39 84763772 B --- -- ---xx flac 0.5962 tab2008-10-21.c463b.d3t02.flac
2:24.32 25476908 B --- -- ---xx flac 0.4297 tab2008-10-21.c463b.d3t03.flac
17:51.52 189046748 B --- -- ---xx flac 0.6017 tab2008-10-21.c463b.d3t04.flac
175:03.41 1852826644 B 0.5433 (23 files)







***************************************
***   24 bit / 96 kHz info file   ***
***************************************

Trey Anastasio Band
2008-10-21
Lupo's Heartbreak Hotel
Providence RI

AKG c460b/ck63>a61(DINa,LOC,50'fs,10'up) > Mini-MP > R-4 BM T-Mod(24/96)
Wave > Sound Frorge 9.0(Fade,Track) > TLH > Flac(24/96)

Taped, Transfered & Seeded by Ted Gakidis
[email protected]

***24/96*** Not for CD Burning

Set 1
01 intro
02 Come on Baby Lets Go Downtown >
03 Last Tube
04 Tube Top Flop
05 Sweet Dreams Melinda
06 Cayman Review
07 Ooh Child
08 Alaska
09 Backwards Down the Number Line
10 Gone
11 Sand
Set 2
12 intro
13 Push on Til the Day
14 Gotta Jibboo
15 Drifting
16 Simple Twist Up Dave
17 Water in the [email protected]
18 Brian and [email protected]
19 Get Back on the [email protected]
20 A Case of Ice and Snow
21 Tuesday
22 crowd
Encore:
23 First Tube > Jam*

@Acoustic
*w/ Billy Kreutzman , Oteil Burbridge(No Tony) & Scott Murawski
Show Checksums
16bit-FLAC-md5
1908499b413fc078d099d5a5e1bd05f6 *tab2008-10-21.c463b.d1t01.flac
3b632d6d3e403b489e97324522cc2f5a *tab2008-10-21.c463b.d1t02.flac
86cb10bb55f042fcad6371013107802a *tab2008-10-21.c463b.d1t03.flac
e139b0e12583a5eca204f3ee7769d6d1 *tab2008-10-21.c463b.d1t04.flac
fefde864399a2fee7894f846e5454fa8 *tab2008-10-21.c463b.d1t05.flac
8e6f98458c339571d1de20a96d73576c *tab2008-10-21.c463b.d1t06.flac
a58dc03addb083a1632cbc5b381ff2fa *tab2008-10-21.c463b.d1t07.flac
37d4f27a172dca0000a7a2a2fc79fc7f *tab2008-10-21.c463b.d1t08.flac
c7138c5d15bd84e64d3ba18297ebb233 *tab2008-10-21.c463b.d1t09.flac
2dba43e5d68d13a4f6d16d152ba2d3dc *tab2008-10-21.c463b.d1t10.flac
85fbb932ebf60163d94298ffc20163fa *tab2008-10-21.c463b.d2t01.flac
3ebf59f091164db245b559697a04ed47 *tab2008-10-21.c463b.d2t02.flac
91a349d06e252b13d2bebb4e2c276c22 *tab2008-10-21.c463b.d2t03.flac
085f1d9076bd6e30a78499c2ff2eb001 *tab2008-10-21.c463b.d2t04.flac
ec3cb258c94e7a28de8349d5f8aad30e *tab2008-10-21.c463b.d2t05.flac
7fa56538fc029f812d84984402b48097 *tab2008-10-21.c463b.d2t06.flac
3c21a0170a50432d97b4d077804a8579 *tab2008-10-21.c463b.d2t07.flac
7892886650b42a0a53f9d10a9338a6ef *tab2008-10-21.c463b.d2t08.flac
d6fd070e2f786d22f77b0d5285775cd2 *tab2008-10-21.c463b.d2t09.flac
cd3919175805cb77ef76bd8d69e1857a *tab2008-10-21.c463b.d3t01.flac
a9d3ec8fa20503ff2d14e28d110f1c7e *tab2008-10-21.c463b.d3t02.flac
a0e3755206d06ba93575d55d2722ef85 *tab2008-10-21.c463b.d3t03.flac
83148c1bdaa4e1bfc7585be90faf6366 *tab2008-10-21.c463b.d3t04.flac
24bit-FLAC-md5
9215956b5c71f37f77f1833b5e9e46fc *tab2008-10-21.c463b.24-96.d1t01.flac
2575ef53992354752c648a733e82a270 *tab2008-10-21.c463b.24-96.d1t02.flac
1ef6248359f384ace4456b7dd5fb6d3c *tab2008-10-21.c463b.24-96.d1t03.flac
5c021a7446a823fb421ada3d71693cb7 *tab2008-10-21.c463b.24-96.d1t04.flac
1d77c58bdf109dec5762b7cb19d8936f *tab2008-10-21.c463b.24-96.d1t05.flac
60de3d586a017d63921cc9783663679e *tab2008-10-21.c463b.24-96.d1t06.flac
22437e32a85d64137c6f4c175e44db2f *tab2008-10-21.c463b.24-96.d1t07.flac
3e92204441b0cd8e5b3f4ce1abd6b991 *tab2008-10-21.c463b.24-96.d1t08.flac
3a345bc16d4ebd8a768186bb872048fe *tab2008-10-21.c463b.24-96.d1t09.flac
c4a5d2dab5e6fb1b76f4f3b1ea8853ac *tab2008-10-21.c463b.24-96.d1t10.flac
4f34007a20a70abf332bb2407a189c30 *tab2008-10-21.c463b.24-96.d1t11.flac
55b276130cb489fd5c8ca03fd2338fa1 *tab2008-10-21.c463b.24-96.d1t12.flac
c1b28419dceb040763e1041da8f8cbd8 *tab2008-10-21.c463b.24-96.d1t13.flac
e710b6a52841e21233fa12021760ff16 *tab2008-10-21.c463b.24-96.d1t14.flac
899e8f48fafc403dc2353c1e9d30eae9 *tab2008-10-21.c463b.24-96.d1t15.flac
cf67a0d9394121957e0b5e203d486b1a *tab2008-10-21.c463b.24-96.d1t16.flac
c45c2c9b54bb2fed897aa81f28762e26 *tab2008-10-21.c463b.24-96.d1t17.flac
30f24eccfcde1a8deabaebe03da79580 *tab2008-10-21.c463b.24-96.d1t18.flac
dc07f0f317bb9d5fdc552b44ddad0312 *tab2008-10-21.c463b.24-96.d1t19.flac
0979551888380201ba3bc2f8ba782eee *tab2008-10-21.c463b.24-96.d1t20.flac
4366234a9a2bf654a6c81ba69dca2f3a *tab2008-10-21.c463b.24-96.d1t21.flac
5d3f794c72ea603256d2bed6d2efbe48 *tab2008-10-21.c463b.24-96.d1t22.flac
8ca89c36b0a5661e60b051db65a411eb *tab2008-10-21.c463b.24-96.d1t23.flac

Comments
Add Comment
Other Sources (comments)
Microtech Gefell m200 >... (0) Schoeps mk4 > kc5 > cmc6 >... (0) flac24 96khz... (0)
Date User Comment