Browse Collections Artists Sources   Search Dates

Add Show    List Management    Help


Trey Anastasio 10/23/08
Orpheum Theater, Boston, MA
Comments Add Comment    Source Collectors    Add to Collection    Add to Want List    History
Source # 95436 Other Sources
Entered by Matt Vernon
Checksums 16bit-FLAC-md5 , 24bit-FLAC-md5
Disc Counts 2 / 3
Media Size
Date Circulated
Date Added
10/24/2008
10/25/2008
Source Summary AKG c460b/ck1S > Mini-MP > R-4 BM T-Mod; Sound Forge 9.0 > TLH > Flac; Taped & Transferred by Ted Gakidis (NOTE: both 16 bit and 24 bit versions available) 
Source Information - Download Text | Download Zip
***************************************
***   16 bit / 44.1 kHz info file   ***
***************************************


Trey Anastasio Band
2008-10-23
The Orpheum Theater
Boston, Ma

AKG c460b/ck1S>a60(DIN,Balcony Rail) > Mini-MP > R-4 BM T-Mod(24/96)
Wave > Sound Frorge 9.0(Fade,Track,Resample 16/44.1) > TLH > Flac

Taped, Transfered & Seeded by Ted Gakidis
[email protected]

Disc 1 - Set I:
01 intro
02 Push On Til the Day
03 Heavy Things
04 Dark And Down
05 Come On Baby Lets Go Downtown
06 Burlap Sack and Pumps
07 Drifting
08 Tube Top Flop
09 Mr. Completely
10 Shine

Disc 2 - Set II:
01 intro
02 Last Tube
03 Sweet Dreams Melinda
04 Sand
05 Let Me Lie
06 Backwards Down the Number Line
07 The Way I Feel
08 Gotta Jibboo
09 Sample in a [email protected]
10 [email protected]
11 Bathtub [email protected]
12 crowd
Encore:
13 Tuesday
14 First Tube

@ Solo Acoustic

shntool 3.0.4
Copyright (C) 2000-2007 Jason Jordan

length expanded size cdr WAVE problems fmt ratio filename
1:01.33 10838060 B --- -- ---xx flac 0.3500 tab2008-10-23.c460b.16-44.d1t01.flac
11:57.49 126594092 B --- -- ---xx flac 0.5909 tab2008-10-23.c460b.16-44.d1t02.flac
5:02.02 53277548 B --- -- ---xx flac 0.5819 tab2008-10-23.c460b.16-44.d1t03.flac
9:59.39 105755372 B --- -- ---xx flac 0.5481 tab2008-10-23.c460b.16-44.d1t04.flac
3:20.16 35317676 B --- -- ---xx flac 0.5824 tab2008-10-23.c460b.16-44.d1t05.flac
8:37.01 91201196 B --- -- ---xx flac 0.6116 tab2008-10-23.c460b.16-44.d1t06.flac
10:50.65 114812924 B --- -- ---xx flac 0.5410 tab2008-10-23.c460b.16-44.d1t07.flac
3:41.11 39010316 B --- -- ---xx flac 0.4906 tab2008-10-23.c460b.16-44.d1t08.flac
10:32.63 111633020 B --- -- ---xx flac 0.5850 tab2008-10-23.c460b.16-44.d1t09.flac
9:55.72 105127388 B --- -- ---xx flac 0.5876 tab2008-10-23.c460b.16-44.d1t10.flac
1:36.51 17054396 B --- -- ---xx flac 0.3477 tab2008-10-23.c460b.16-44.d2t01.flac
12:49.66 135806876 B --- -- ---xx flac 0.5896 tab2008-10-23.c460b.16-44.d2t02.flac
10:47.11 114156716 B --- -- ---xx flac 0.5600 tab2008-10-23.c460b.16-44.d2t03.flac
15:01.30 159007004 B --- -- ---xx flac 0.5947 tab2008-10-23.c460b.16-44.d2t04.flac
6:52.68 72836780 B --- -- ---xx flac 0.4800 tab2008-10-23.c460b.16-44.d2t05.flac
8:00.40 84766124 B --- -- ---xx flac 0.5840 tab2008-10-23.c460b.16-44.d2t06.flac
13:04.67 138455228 B --- -- ---xx flac 0.4971 tab2008-10-23.c460b.16-44.d2t07.flac
16:39.70 176388284 B --- -- ---xx flac 0.5921 tab2008-10-23.c460b.16-44.d3t01.flac
4:15.56 45113756 B --- -- ---xx flac 0.5144 tab2008-10-23.c460b.16-44.d3t02.flac
3:26.09 36359612 B --- -- ---xx flac 0.5191 tab2008-10-23.c460b.16-44.d3t03.flac
4:59.60 52884764 B --- -- ---xx flac 0.4604 tab2008-10-23.c460b.16-44.d3t04.flac
2:53.70 30681884 B --- -- ---xx flac 0.4247 tab2008-10-23.c460b.16-44.d3t05.flac
6:47.43 71895980 B --- -- ---xx flac 0.6168 tab2008-10-23.c460b.16-44.d3t06.flac
8:40.74 91902092 B --- -- ---xx flac 0.6354 tab2008-10-23.c460b.16-44.d3t07.flac
190:56.16 2020877088 B 0.5625 (24 files)










*************************************
***   24 bit / 96 kHz info file   ***
*************************************

Trey Anastasio Band
2008-10-23
The Orpheum Theater
Boston, Ma

AKG c460b/ck1S>a60(DIN,Balcony Rail) > Mini-MP > R-4 BM T-Mod(24/96)
Wave > Sound Frorge 9.0(Fade,Track) > TLH > Flac

Taped, Transfered & Seeded by Ted Gakidis
[email protected]

***24/96*** Not for CD Burning

Disc 1 - Set I:
01 intro
02 Push On Til the Day
03 Heavy Things
04 Dark And Down
05 Come On Baby Lets Go Downtown
06 Burlap Sack and Pumps
07 Drifting
08 Tube Top Flop
09 Mr. Completely
10 Shine
Set II:
11 intro
12 Last Tube
13 Sweet Dreams Melinda
14 Sand
15 Let Me Lie
16 Backwards Down the Number Line
17 The Way I Feel
18 Gotta Jibboo
19 Sample in a [email protected]
20 [email protected]
21 Bathtub [email protected]
22 crowd
Encore:
23 Tuesday
24 First Tube

@ Solo Acoustic

shntool 3.0.4
Copyright (C) 2000-2007 Jason Jordan

length expanded size cdr WAVE problems fmt ratio filename
1:01.440 35389484 B cxx -- ---xx flac 0.4860 tab2008-10-23.c460b.24-96.d1t01.flac
11:57.653 413368364 B cxx -- ---xx flac 0.5962 tab2008-10-23.c460b.24-96.d1t02.flac
5:02.037 173973548 B cxx -- ---xx flac 0.5924 tab2008-10-23.c460b.24-96.d1t03.flac
9:59.509 345317420 B cxx -- ---xx flac 0.5790 tab2008-10-23.c460b.24-96.d1t04.flac
3:20.224 115329068 B cxx -- ---xx flac 0.5931 tab2008-10-23.c460b.24-96.d1t05.flac
8:37.003 297793580 B cxx -- ---xx flac 0.6020 tab2008-10-23.c460b.24-96.d1t06.flac
10:50.869 374900780 B cxx -- ---xx flac 0.5745 tab2008-10-23.c460b.24-96.d1t07.flac
3:41.152 127383596 B cxx -- ---xx flac 0.5515 tab2008-10-23.c460b.24-96.d1t08.flac
10:32.832 364511276 B cxx -- ---xx flac 0.5918 tab2008-10-23.c460b.24-96.d1t09.flac
9:55.968 343277606 B cxx -- ---xx flac 0.5939 tab2008-10-23.c460b.24-96.d1t10.flac
1:36.679 55687250 B cxx -- ---xx flac 0.4908 tab2008-10-23.c460b.24-96.d1t11.flac
12:49.881 443451398 B cxx -- ---xx flac 0.5950 tab2008-10-23.c460b.24-96.d1t12.flac
10:47.151 372758906 B cxx -- ---xx flac 0.5826 tab2008-10-23.c460b.24-96.d1t13.flac
15:01.393 519202526 B cxx -- ---xx flac 0.5945 tab2008-10-23.c460b.24-96.d1t14.flac
6:52.908 237835190 B cxx -- ---xx flac 0.5490 tab2008-10-23.c460b.24-96.d1t15.flac
8:00.532 276786338 B cxx -- ---xx flac 0.5911 tab2008-10-23.c460b.24-96.d1t16.flac
13:04.896 452100140 B cxx -- ---xx flac 0.5558 tab2008-10-23.c460b.24-96.d1t17.flac
16:39.936 575963180 B cxx -- ---xx flac 0.5945 tab2008-10-23.c460b.24-96.d1t18.flac
4:15.744 147308588 B cxx -- ---xx flac 0.5588 tab2008-10-23.c460b.24-96.d1t19.flac
3:26.123 118726700 B cxx -- ---xx flac 0.5619 tab2008-10-23.c460b.24-96.d1t20.flac
4:59.793 172681022 B cxx -- ---xx flac 0.5389 tab2008-10-23.c460b.24-96.d1t21.flac
2:53.935 100186394 B cxx -- ---xx flac 0.5261 tab2008-10-23.c460b.24-96.d1t22.flac
6:47.573 234762284 B cxx -- ---xx flac 0.6049 tab2008-10-23.c460b.24-96.d1t23.flac
8:40.981 300085292 B cxx -- ---xx flac 0.6132 tab2008-10-23.c460b.24-96.d1t24.flac
190:56.213 6598779930 B 0.5827 (24 files)


Show Checksums
16bit-FLAC-md5
c2ca723b3e0d82708c3a42196c3350ab *tab2008-10-23.c460b.16-44.d1t01.flac
fc224008b29494b52e00b4b000622544 *tab2008-10-23.c460b.16-44.d1t02.flac
264153951269e88ba1d1b3a2bf86e2e6 *tab2008-10-23.c460b.16-44.d1t03.flac
6b6197636b87ec8f7922c4fb7da6029c *tab2008-10-23.c460b.16-44.d1t04.flac
bf661b89def084ae643ffbb806a9308c *tab2008-10-23.c460b.16-44.d1t05.flac
e19fd3a25c19c2bf5d396cf8b1d6c6a3 *tab2008-10-23.c460b.16-44.d1t06.flac
4732801e343f1221471f666e123b2c1f *tab2008-10-23.c460b.16-44.d1t07.flac
4b001bbf92e174c558b5fa137e171b2a *tab2008-10-23.c460b.16-44.d1t08.flac
6d4bc6f6d7503ad00cc4a4453b178b44 *tab2008-10-23.c460b.16-44.d1t09.flac
5565637a152a3f5abf13875682321e61 *tab2008-10-23.c460b.16-44.d1t10.flac
0d69af7f5770b0c78ec37a51c177b1f1 *tab2008-10-23.c460b.16-44.d2t01.flac
b4bb94ea32bae9572ff2a610aa3149b5 *tab2008-10-23.c460b.16-44.d2t02.flac
d7f1b46275a881cf14e2a6459780d16f *tab2008-10-23.c460b.16-44.d2t03.flac
4eb799cf3e8f630ccea277f2a442cb89 *tab2008-10-23.c460b.16-44.d2t04.flac
2d3c5882334a8271ce5b9ce89e2e2a90 *tab2008-10-23.c460b.16-44.d2t05.flac
daa8d3d76dade99ba77314d75ab0ae21 *tab2008-10-23.c460b.16-44.d2t06.flac
93f99f7fa5fa40bf57cd289a3158abf8 *tab2008-10-23.c460b.16-44.d2t07.flac
176632ed3d771ba4a946539cbd62b6f6 *tab2008-10-23.c460b.16-44.d3t01.flac
1621a6a8d5cda2762314338968ffcee1 *tab2008-10-23.c460b.16-44.d3t02.flac
57f418de34fa445fbd2b226cd879806f *tab2008-10-23.c460b.16-44.d3t03.flac
724f50368eeaeeee41ffa3014aea4423 *tab2008-10-23.c460b.16-44.d3t04.flac
0e9f8f89124c3cabae0619b3db583803 *tab2008-10-23.c460b.16-44.d3t05.flac
4bb280a2b796dd15ac52de0d505bc722 *tab2008-10-23.c460b.16-44.d3t06.flac
01da669e2bf9563740ebe8c147a3e676 *tab2008-10-23.c460b.16-44.d3t07.flac
24bit-FLAC-md5
31544b043e41567f81b2b39bb9390ef6 *tab2008-10-23.c460b.24-96.d1t01.flac
021def01ff1d06d533269713d66e3405 *tab2008-10-23.c460b.24-96.d1t02.flac
a9707b9cf2054d67b3d64000079b076f *tab2008-10-23.c460b.24-96.d1t03.flac
a25dfa6e8e4cb0466863bc729d4cadf8 *tab2008-10-23.c460b.24-96.d1t04.flac
65f9d1eedb9ca79e8ecde4b5c4807e4a *tab2008-10-23.c460b.24-96.d1t05.flac
cccb6c6968bb91844b66060127dfcfdc *tab2008-10-23.c460b.24-96.d1t06.flac
278e2dd3d05fbd583135c3101b01a9ec *tab2008-10-23.c460b.24-96.d1t07.flac
555482c78003bc1014cc7e1f55c23983 *tab2008-10-23.c460b.24-96.d1t08.flac
a90cf953a48ae826a82c4015fbed8e9a *tab2008-10-23.c460b.24-96.d1t09.flac
e51c35844a2f8165c2741419c95fd957 *tab2008-10-23.c460b.24-96.d1t10.flac
c745b1ceddf15ae3a05b97ee8dcb0a15 *tab2008-10-23.c460b.24-96.d1t11.flac
10e8d625b83552a4ddb9758a848d2c7f *tab2008-10-23.c460b.24-96.d1t12.flac
208f554d0c64b8fb656758ed4d7509fb *tab2008-10-23.c460b.24-96.d1t13.flac
36665273e516ae004efe769fa9f85074 *tab2008-10-23.c460b.24-96.d1t14.flac
4a2c2cdd77c144c0b6308c88ea33ff0e *tab2008-10-23.c460b.24-96.d1t15.flac
f77095cbb1633792358acc96e833711b *tab2008-10-23.c460b.24-96.d1t16.flac
7239dbe41d0434e986212ad0352b42a4 *tab2008-10-23.c460b.24-96.d1t17.flac
22df39ae93a7830ec7fedd12f0ae64cb *tab2008-10-23.c460b.24-96.d1t18.flac
ef28f4cd2747919753cd19c4245ce13b *tab2008-10-23.c460b.24-96.d1t19.flac
b04b755d4cd192f94254ae978359cafe *tab2008-10-23.c460b.24-96.d1t20.flac
9bbc9baa3267d3c6417aa232f1f3f7fe *tab2008-10-23.c460b.24-96.d1t21.flac
15fc0083736328f5d098d9110ba56083 *tab2008-10-23.c460b.24-96.d1t22.flac
ff4c64facb749250b74ae7892a0ef544 *tab2008-10-23.c460b.24-96.d1t23.flac
3dde3517c6dc011eec2c607fbdaacead *tab2008-10-23.c460b.24-96.d1t24.flac

Comments
Add Comment
Other Sources (comments)
Schoeps mk41 > kc5 > cmc6 >... (0) Schoeps mk4 > kc5 > cmc6 >... (0)
Date User Comment