Browse Collections Artists Sources   Search Dates

Add Show    List Management    Help


Grateful Dead 08/05/89
Cal Expo, Sacramento, CA
Comments Add Comment    Source Collectors    Add to Collection    Add to Want List    History
Source # 96341 Other Sources
Entered by dr.unclear
Checksums flac-md5 , ffp
Disc Counts 2 / 3
Media Size
Date Circulated
Date Added
12/13/2008
12/11/2008
Source Summary flac16; matrix of SBD: shnid=89885 and DAUD: shnid=3871 by hansokolow using ProTools  
  Archive
Source Information - Download Text | Download Zip
Grateful Dead
Saturday, August 5th, 1989
Cal Expo Amphitheatre
Sacramento, CA

       cd1  -  set 1
1)  Tuning
2)  One More Saturday Night
3)  Cold Rain And Snow
4)  We Can Run
5)  Stagger Lee
6)  Stuck Inside Of Mobile With The Memphis Blues Again
7)  Row Jimmy
8)  Let It Grow

       cd2  -  set 2
1)  Hey Pocky Way->
2)  Playin' In The Band->
3)  I Know You Rider->
4)  Terrapin Station->
5)  Drums->

       cd3
1)  Space->
2)  Standing On The Moon->
3)  Throwing Stones->
4)  Not Fade Away
5)    e:  U.S. Blues

-----------------------------------

This is a matrix, done by hansokolow in ProTools, of the following sources:

SBD: shnid=89885
SBD-> Cassette Master (TDK MA-XG90)

Transfer Info:
Cassette Master (Nakamichi DR-1) -> Sound Devices 744T (24bit/48k) ->
Samplitude Professional v10.02 -> FLAC/16
(3 Discs Audio / 2 Discs FLAC)

All Transfers and Mastering By Charlie Miller
[email protected]
February 4, 2008

Patch Info:
(FOB) Schoeps MK2 (spread) -> Dat > CD (shnid-3871) supplies:
Space (8:33 - 9:14)

-----------------------------------

DAUD: shnid=3871
FOB Schoeps MK2 (spread) > dat > cdr

Transfer:
EAC(range extraction at 100%) > CDWAV > mkwACT

-----------------------------------

My Notes: The DAUD is missing the encore, so here it's all SBD.  There is a slight bit of phasing at times.  I removed Charlie's AUD patch, so as not to conflict with the AUD already there.

-Tano ([email protected])


    length     expanded size    cdr  WAVE problems  fmt   ratio  filename
     4:19.52       45809948 B   ---   --   ---xx  gd89-08-05d1t01.flac
     5:35.71       59261036 B   ---   --   ---xx  gd89-08-05d1t02.flac
     8:18.47       87957788 B   ---   --   ---xx  gd89-08-05d1t03.flac
     5:22.43       56901980 B   ---   --   ---xx  gd89-08-05d1t04.flac
     6:32.50       69266444 B   ---   --   ---xx  gd89-08-05d1t05.flac
    11:37.09      122972012 B   ---   --   ---xx  gd89-08-05d1t06.flac
    11:23.23      120535340 B   ---   --   ---xx  gd89-08-05d1t07.flac
    12:06.42      128165228 B   ---   --   ---xx  gd89-08-05d1t08.flac
     8:09.55       86389004 B   ---   --   ---xx  gd89-08-05d2t01.flac
     7:28.37       79114268 B   ---   --   ---xx  gd89-08-05d2t02.flac
     6:36.42       69953228 B   ---   --   ---xx  gd89-08-05d2t03.flac
    12:52.23      136234940 B   ---   --   ---xx  gd89-08-05d2t04.flac
     3:50.01       40574396 B   ---   --   ---xx  gd89-08-05d2t05.flac
    11:09.28      118077500 B   ---   --   ---xx  gd89-08-05d3t01.flac
     9:46.45      103476284 B   ---   --   ---xx  gd89-08-05d3t02.flac
    10:13.73      108304940 B   ---   --   ---xx  gd89-08-05d3t03.flac
    12:58.03      137246300 B   ---   --   ---xx  gd89-08-05d3t04.flac
     5:51.25       61975244 B   ---   --   ---xx  gd89-08-05d3t05.flac
   154:12.69     1632215880 B                            0.5933  (18 files)
Show Checksums
flac-md5
55339ee4b8b40702a62e5fe028b3536e *gd89-08-05d1t01.flac
cbe321195ea0a13ac5df98a69bff46c1 *gd89-08-05d1t02.flac
bd4e3bf4765b52def0c8647d726efbfd *gd89-08-05d1t03.flac
e22fdfeee9174c9f194cc1f0c6ef7130 *gd89-08-05d1t04.flac
399f1fc81bd297535f81aae30e7bf461 *gd89-08-05d1t05.flac
ebb2ffef7b786d6ab75ca7e7a1958e9e *gd89-08-05d1t06.flac
34e7c717284b092e5239ecc3d4054435 *gd89-08-05d1t07.flac
eb17c54a2619db8c2ff446630ffd202e *gd89-08-05d1t08.flac
f473425aa025ff30d53457d3c1f722aa *gd89-08-05d2t01.flac
164b42760a44ca5f340d07c3189737c7 *gd89-08-05d2t02.flac
84d4417130bfdec7259c5696893e5d77 *gd89-08-05d2t03.flac
863b9cb8965389eb95945d5897bd9d50 *gd89-08-05d2t04.flac
50b445a3c3dfa0b70999b706c9e4aa73 *gd89-08-05d2t05.flac
ec56175f0bc9aad22eb01c5e67a25cea *gd89-08-05d3t01.flac
6a12470d9f631c0827cf806b8dfa4beb *gd89-08-05d3t02.flac
e49d7103b01523f3666fdc1cf318c41c *gd89-08-05d3t03.flac
2ef38ffaf32274ae834352146fabf4d5 *gd89-08-05d3t04.flac
7f692b6200f751458e806f61e22fed11 *gd89-08-05d3t05.flac
ffp
gd89-08-05d1t01.flac:81c71fd1b9ce07a7938d8e63b242d9f2
gd89-08-05d1t02.flac:8cc97d119f2a61427d553d1dd6e6b83d
gd89-08-05d1t03.flac:af2872fa888ec2cba62778c69bc3b052
gd89-08-05d1t04.flac:5ae762192a74e21d73fbd8d779cb4b77
gd89-08-05d1t05.flac:08976e600cd72e51924576e67dfb790f
gd89-08-05d1t06.flac:4e47adcaa6accda066644e67927c8e5e
gd89-08-05d1t07.flac:19e0a2db875b3deb0758ef3093aa2d94
gd89-08-05d1t08.flac:3b7089d02838d3df3abe34b80253ba66
gd89-08-05d2t01.flac:83fc4645cfbce5aff2b86308e8b85f6f
gd89-08-05d2t02.flac:61433664d7b5cc6bbab6642005055bdc
gd89-08-05d2t03.flac:5d27eea18d5d1203a0fa08b640f3a697
gd89-08-05d2t04.flac:cd2223d147c18e241471d150021053c7
gd89-08-05d2t05.flac:68795a60d2c75c11dd00404428427a70
gd89-08-05d3t01.flac:b613de1e8985fb28c0821f2d47f70b3f
gd89-08-05d3t02.flac:debc6f96601f7892be44c2ef6238e215
gd89-08-05d3t03.flac:c21a497e0a77ce3522e95c3cbf9a64cb
gd89-08-05d3t04.flac:06e75365409162285ef86095f8bb60d1
gd89-08-05d3t05.flac:515b2d385c552f0dd34b58e4c57e026f

Comments
Add Comment
Other Sources (comments)
FOB Schoeps MK2 (spread) >... (2) set 2; SBD> CM> DAT> CD>... (0) SBD > MC > C > DAT > CD >... (0) flac16; Seamless fix... (1) flac16; AUD Source:... (0) flac16; Recording... (1) flac16; Source:... (0) flac16; FOB/Schoeps... (0)
Date User Comment