Browse Collections Artists Sources   Search Dates

Add Show    List Management    Help


Garcia 03/11/78
WBRU-FM Studios, Pawtucket, RI
Comments Add Comment    Source Collectors    Add to Collection    Add to Want List    History
Source # 97682 Other Sources
Entered by Joe Jupille
Checksums ffp
Disc Counts 2 / 2
Media Size
Date Circulated
Date Added
02/28/2009
02/28/2009
Source Summary JGB: Tim Friend's 1x AKG D200E (mono recording) > Sony TC-153SD > Maxell UD-XLII 90's, with no Dolby. Fifth row orchestra, left center section; Transfer: MAC > Nakamichi DR-8 (with no Dolby) > Edirol FA-66 > Wavelab > R8Brain > CD-Wave > TLH > FLAC 1644 by Andrew F. 
Source Information - Download Text | Download Zip
JERRY GARCIA BAND
Leroy Theater
Pawtucket RI
03-11-1978

Disc One - Set One (79:02)

01 crowd & tuning
02 How Sweet It Is
03 Catfish John
04 That's What Love Will Make You Do
05 I'll Take a Melody
06 The Harder They Come
07 Gommorah
08 Mystery Train

Disc Two - Set Two (66:26)

01 crowd & tuning
02 Love in the Afternoon
03 Rhapsody in Red
04 Knockin' on Heaven's Door
05 Tore Up Over You
06 I'll Be With Thee
07 Lonesome and a Long Way from Home

AUD: 1x AKG D200E (mono recording) > Sony TC-153SD > Maxell
UD-XLII 90's, with no Dolby. Fifth row orchestra, left center
section, taped by Tim Friend.

Transfer: MAC > Nakamichi DR-8 (with no Dolby) > Edirol FA-66 >
Wavelab > R8Brain > CD-Wave > TLH > FLAC 1644. Andrew F. 02/2009

Note: The end of Melody was cut by a tape-flip. ShnID-14931
provided a patch from 14:51 > 15:01. The patch material was EQ'ed
and mixed down to mono to more closely resemble Tim's recording.

    length     expanded size    cdr  WAVE problems  fmt   ratio  filename
     0:34.57        6131708 B   ---   --   ---xx   flac  0.4334  jgb1978-03-11d1t01.flac
     8:21.57       88510508 B   ---   --   ---xx   flac  0.5096  jgb1978-03-11d1t02.flac
    11:16.54      119373452 B   ---   --   ---xx   flac  0.4862  jgb1978-03-11d1t03.flac
    11:49.05      125079404 B   ---   --   ---xx   flac  0.5096  jgb1978-03-11d1t04.flac
    16:15.00      171990044 B   ---   --   ---xx   flac  0.4930  jgb1978-03-11d1t05.flac
    13:55.65      147446924 B   ---   --   ---xx   flac  0.5019  jgb1978-03-11d1t06.flac
     6:43.65       71242124 B   ---   --   ---xx   flac  0.4867  jgb1978-03-11d1t07.flac
    10:05.57      106856108 B   ---   --   ---xx   flac  0.5376  jgb1978-03-11d1t08.flac
     1:02.17       10976828 B   ---   --   ---xx   flac  0.4086  jgb1978-03-11d2t01.flac
    12:09.02      128600348 B   ---   --   ---xx   flac  0.4759  jgb1978-03-11d2t02.flac
    10:13.66      108288476 B   ---   --   ---xx   flac  0.5259  jgb1978-03-11d2t03.flac
    13:00.69      137754332 B   ---   --   ---xx   flac  0.4625  jgb1978-03-11d2t04.flac
     9:15.50       98019644 B   ---   --   ---xx   flac  0.5240  jgb1978-03-11d2t05.flac
     4:46.00       50450444 B   ---   --   ---xx   flac  0.4923  jgb1978-03-11d2t06.flac
    15:58.46      169099436 B   ---   --   ---xx   flac  0.5037  jgb1978-03-11d2t07.flac
   145:29.10     1539819780 B                            0.4989  (15 files)

No errors occured.
Show Checksums
ffp
jgb1978-03-11d1t01.flac:5dde2e3950753eb1071bace303c2e563
jgb1978-03-11d1t02.flac:e08de8eaa436342f4a6d4f9111c07a37
jgb1978-03-11d1t03.flac:a4ea8e667f0aeed136c4337b576e0b67
jgb1978-03-11d1t04.flac:ce0bbfd51601decf17a84487047c3697
jgb1978-03-11d1t05.flac:e5b4de520a27d2b0bb8555944bfa978f
jgb1978-03-11d1t06.flac:799500745ec773766e789bed06971df8
jgb1978-03-11d1t07.flac:5adf60df8eefc9525811b817e907882c
jgb1978-03-11d1t08.flac:2e03724fdaf4b3fb2014cea89420f328
jgb1978-03-11d2t01.flac:72dbe5b908ae46f2fa186b98f5ca5e23
jgb1978-03-11d2t02.flac:cc4ccdec027bb7667a4c76a4a4027984
jgb1978-03-11d2t03.flac:76b53f1cea71d202d050ca11e7000edd
jgb1978-03-11d2t04.flac:dcba03b5b21658b6db00663600fd45b3
jgb1978-03-11d2t05.flac:580387cefe6bd501b31ec5895a153758
jgb1978-03-11d2t06.flac:5da11d2e281196b03a8d3dc4c3551f9a
jgb1978-03-11d2t07.flac:a867502a46edd6818ad12074e2327274

Comments
Add Comment
Date User Comment