Browse Collections Artists Sources   Search Dates

Add Show    List Management    Help


Garcia 05/19/94
Desert Sky Pavillion, Phoenix, AZ
Comments Add Comment    Source Collectors    Add to Collection    Add to Want List    History
Source # 97700 Other Sources
Entered by Matt Vernon
Checksums md5 , ffp
Disc Counts 1 / 1
Media Size
Date Circulated
Date Added
03/02/2009
03/02/2009
Source Summary Jerry Garcia Band: unknown aud source; Transfer: Dat Clone->Panasonic SV3700-> Marantz CDR 615-> CDR Ripped with EAC (No Errors); Tracks Named -> Flaced with Traders Little Helper. DAT->CDR 1999, CDR->Flac 2009 by Pete Ebel. 
Source Information - Download Text | Download Zip
Jerry Garcia Band
Desert Sky Pavillion,
Phoenix, AZ
05-19-1994


Source:   Unknown

Taper:    Unknown

Transfer: Dat Clone->Panasonic SV3700-> Marantz CDR 615-> CDR Ripped with EAC (No Errors)
  Tracks Named -> Flaced with Traders Little Helper.
  DAT->CDR 1999, CDR->Flac on 03-02-09 Transfers by Pete Ebel



Only One Set:

01. How Sweet It Is
02. Waiting For A Miracle
03. Money Honey
04. Dear Prudence
05. My Sisters And Brothers


Notes:
- Small Glitch at 2:42 & 2:50 of How Sweet It Is...
- The Deck was paused between songs



From Comments on db.etree:
After about an hour of set break, an announcement was made that Jerry had the flu,
could not get his strength back and that the second set was cancelled.
Jerry looked really bad during the first set.

shntool 3.0.4
Copyright (C) 2000-2007 Jason Jordan

    length     expanded size    cdr  WAVE problems  fmt   ratio  filename
     6:11.38       65533820 B   ---   --   ---xx   flac  0.5740  jgb1994-05-19d1t01.flac
     5:39.12       59827868 B   ---   --   ---xx   flac  0.5840  jgb1994-05-19d1t02.flac
     4:32.65       48133724 B   ---   --   ---xx   flac  0.5989  jgb1994-05-19d1t03.flac
    11:09.68      118171580 B   ---   --   ---xx   flac  0.5352  jgb1994-05-19d1t04.flac
     4:12.33       44530460 B   ---   --   ---xx   flac  0.4909  jgb1994-05-19d1t05.flac
    31:45.66      336197452 B                            0.5547  (5 files)

Show Checksums
md5
9f6f992def419eea143aa170df4e754d *jgb1994-05-19d1t01.flac
ea2bafcf49237a5c124958ae0248b6f9 *jgb1994-05-19d1t02.flac
f2ed79da496a66c36378ccd03475a70f *jgb1994-05-19d1t03.flac
8a989ab83624218340f6bf832c4b6dd0 *jgb1994-05-19d1t04.flac
75a6383f3047f437b9af3756957e4d7e *jgb1994-05-19d1t05.flac
ffp
jgb1994-05-19d1t01.flac:7b705a5cacdffbbff0b1b4f0fe4603d9
jgb1994-05-19d1t02.flac:ca44ab10ef87a7e397dd7550ffcda199
jgb1994-05-19d1t03.flac:602269256a9eceda92a828d8b6b30421
jgb1994-05-19d1t04.flac:afc719932675fc113f439294a0fe13e6
jgb1994-05-19d1t05.flac:794f5f9e7c556a186800f0f2e8ff6e82

Comments
Add Comment
Date User Comment