Browse Collections Artists Sources   Search Dates

Add Show    List Management    Help


Garcia 09/10/94
Reno Hilton Ampitheater, Reno, NV
Comments Add Comment    Source Collectors    Add to Collection    Add to Want List    History
Source # 97863 Other Sources
Entered by Matt Vernon
Checksums ffp , md5
Disc Counts 2 / 2
Media Size
Date Circulated
Date Added
03/12/2009
03/12/2009
Source Summary Jerry Garcia Band: Schoeps CMC441 (Hyper-Cards)-> Koro P/S->Panasonic SV255; Taper: Unknown. Transfer: Dat Clone > Panasonic SV3700 > Marantz CDR 615 > CDR Ripped with EAC (No Errors) Tracks Named > Flaced with Traders Little Helper and Tagged with Foobar 2000. DAT > CDR 1999, CDR->Flac 2009. Transfers by Pete Ebel. 
Source Information - Download Text | Download Zip
Jerry Garcia Band
Reno Hilton Amphitheatre
Reno, NV
09-10-94



Source:   Schoeps CMC441 (Hyper-Cards)-> Koro P/S->Panasonic SV255

Taper:    Unknown

Transfer: Dat Clone->Panasonic SV3700-> Marantz CDR 615-> CDR Ripped with EAC (No Errors)
  Tracks Named -> Flaced with Traders Little Helper and Tagged with Foobar 2000.
  DAT->CDR 1999, CDR->Flac on 03-12-09 Transfers by Pete Ebel

Set 1:
01. ...How Sweet It Is!
02. Stop That Train
03. Get Out Of My Life Woman
04. Run For The Roses
05. Ain't No Bread In The Breadbox
06. My Sisters And Brothers
07. Deal

Set 2 :
01. The Way You Do The Things You Do
02. The Maker
03. Wonderful World
04. Johnny Too Bad *
05. Don't Let Go
06. Lucky Old Sun
07. Midnight Moonlight



Comments:  
*First Time Played
...First Couple of Notes of How Sweet are missing

Very Nice Field Recording...enjoy





shntool 3.0.4
Copyright (C) 2000-2007 Jason Jordan

    length     expanded size    cdr  WAVE problems  fmt   ratio  filename
     7:02.32       74516108 B   ---   --   ---xx   flac  0.4930  jgb1994-09-10d1t01.flac
     7:38.48       80904140 B   ---   --   ---xx   flac  0.5169  jgb1994-09-10d1t02.flac
     9:36.65      101759324 B   ---   --   ---xx   flac  0.4956  jgb1994-09-10d1t03.flac
     5:17.15       55954124 B   ---   --   ---xx   flac  0.5164  jgb1994-09-10d1t04.flac
     8:04.40       85471724 B   ---   --   ---xx   flac  0.4895  jgb1994-09-10d1t05.flac
     3:48.65       40372124 B   ---   --   ---xx   flac  0.4685  jgb1994-09-10d1t06.flac
     7:50.48       83020940 B   ---   --   ---xx   flac  0.5218  jgb1994-09-10d1t07.flac
    10:31.18      111350780 B   ---   --   ---xx   flac  0.4198  jgb1994-09-10d2t01.flac
    12:34.61      133149116 B   ---   --   ---xx   flac  0.4511  jgb1994-09-10d2t02.flac
     4:57.14       52423772 B   ---   --   ---xx   flac  0.4688  jgb1994-09-10d2t03.flac
    11:26.59      121149212 B   ---   --   ---xx   flac  0.4095  jgb1994-09-10d2t04.flac
    12:20.61      130679516 B   ---   --   ---xx   flac  0.4693  jgb1994-09-10d2t05.flac
     4:22.28       46282700 B   ---   --   ---xx   flac  0.4201  jgb1994-09-10d2t06.flac
     5:37.07       59463308 B   ---   --   ---xx   flac  0.4817  jgb1994-09-10d2t07.flac
   111:09.36     1176496888 B                            0.4695  (14 files)
Show Checksums
ffp
jgb1994-09-10d1t01.flac:7d24c4b234859f88abb69a1694d82533
jgb1994-09-10d1t02.flac:44a5ae0b8cc2a8c138ec277e4fa4afa3
jgb1994-09-10d1t03.flac:874b79d4306d10758b43eb33f5fcea1c
jgb1994-09-10d1t04.flac:18ff8f3d972fb397fa8f4a246501aef2
jgb1994-09-10d1t05.flac:3f021546ff41e342f84ccd2c1d5c1ae1
jgb1994-09-10d1t06.flac:277f4c26f33d0411cfb5c81abd54fa36
jgb1994-09-10d1t07.flac:db9ade1d61cddc8e7480f5790b6b40c0
jgb1994-09-10d2t01.flac:70a6dfce742623666cf287ff012c3d3d
jgb1994-09-10d2t02.flac:9a61b43e1a3ac90c06c37191f58d78e3
jgb1994-09-10d2t03.flac:98072c85eec4f3d5f86b11874c70a97d
jgb1994-09-10d2t04.flac:89b1c19bc71ebcf9959a1e4ee0f79d85
jgb1994-09-10d2t05.flac:d3d217b4215d590d35a14744b8aa55fd
jgb1994-09-10d2t06.flac:51dd493e9d0a24f85137d2b28749b64b
jgb1994-09-10d2t07.flac:f848450c221c1dd46f204552d19cc177
md5
f5f86d33bbeb1dbf37128dddfb0fdb23 *jgb1994-09-10d1t01.flac
f3570cbce99f84118cf7d0fcccb4c495 *jgb1994-09-10d1t02.flac
8b4ce5a7e8eeda674c30d5dfcf784cd2 *jgb1994-09-10d1t03.flac
89c6d1d7f5690c3bb7196718683afc8f *jgb1994-09-10d1t04.flac
ff8d658104e908fc8f72f081225356f3 *jgb1994-09-10d1t05.flac
b3763a496c379b765dbbb039227b6954 *jgb1994-09-10d1t06.flac
f20f96552fc97cc9f0a342629d1bbbc2 *jgb1994-09-10d1t07.flac
8759033c747d3f79f61c8d76f0e3319b *jgb1994-09-10d2t01.flac
14af5909ad1b42c4ed581c039aba1bd8 *jgb1994-09-10d2t02.flac
88471d3ac8d0bfdb17a14c4d1e1f9049 *jgb1994-09-10d2t03.flac
e638f0cefa1acf0f70b27edf45ae4d35 *jgb1994-09-10d2t04.flac
31c2b876d4fde5b35ba6df5269032d46 *jgb1994-09-10d2t05.flac
d987c2552dba49ddfc5148a779e5e25e *jgb1994-09-10d2t06.flac
a55229968fb8b129e4fbc80ce97d374d *jgb1994-09-10d2t07.flac

Comments
Add Comment
Other Sources (comments)
Jerry Garcia Band. Source:... (0)
Date User Comment