Browse Collections Artists Sources   Search Dates

Add Show    List Management    Help


Garcia 04/25/94
Warfield Theater, San Francisco, CA
Comments Add Comment    Source Collectors    Add to Collection    Add to Want List    History
Source # 97864 Other Sources
Entered by Matt Vernon
Checksums ffp , md5
Disc Counts 2 / 2
Media Size
Date Circulated
Date Added
03/12/2009
03/12/2009
Source Summary Jerry Garcia Band: FOB - Neumann KM 54->DAT->CDR->WAV->FLAC. Tapers: Chuck and Janet Vasseur (assumed, but not confirmed). Transfer: Dat Clone > Panasonic SV3700 > Marantz CDR 615 > CDR Ripped with EAC (No Errors) Tracks Named > Flaced with Traders Little Helper and Tagged with Foobar 2000. DAT->CDR 1999, CDR->Flac2009. Transfers by Pete Ebel. 
Source Information - Download Text | Download Zip
Jerry Garcia Band
Warfield Theater,
San Francisco, Ca.
04-25-1994



Source:  FOB - Neumann KM 54->DAT->CDR->WAV->FLAC

Taper:    Chuck and Janet Vasseur  (assumed, but not confirmed)

Transfer: Dat Clone->Panasonic SV3700-> Marantz CDR 615-> CDR Ripped with EAC (No Errors)
      Tracks Named -> Flaced with Traders Little Helper and Tagged with Foobar 2000.
      DAT->CDR 1999, CDR->Flac on 03-12-09 Transfers by Pete Ebel



Set 1:
01. How Sweet It Is!
02. They Love Each Other
03. Waiting For A Miracle
04. Knockin' On Heaven's Door
05. Breadbox
06. Sisters And Brothers
07. Deal

Set 2:
01. The Harder They Come
02. Mission In The Rain
03. You Never Can Tell
04. Money Honey
05. Rubin And Cherise
06. Senor
07. Midnight Moonlight




shntool 3.0.4
Copyright (C) 2000-2007 Jason Jordan

    length    expanded size    cdr  WAVE problems  fmt  ratio  filename
    8:21.70      88541084 B  ---  --  ---xx  flac  0.5811  jgb1994-04-25d1t01.flac
    9:11.55      97325804 B  ---  --  ---xx  flac  0.5771  jgb1994-04-25d1t02.flac
    6:58.18      73777580 B  ---  --  ---xx  flac  0.5960  jgb1994-04-25d1t03.flac
    11:34.59      122560412 B  ---  --  ---xx  flac  0.5316  jgb1994-04-25d1t04.flac
    11:35.10      122621564 B  ---  --  ---xx  flac  0.5910  jgb1994-04-25d1t05.flac
    5:19.52      56393948 B  ---  --  ---xx  flac  0.5611  jgb1994-04-25d1t06.flac
    9:28.56      100326956 B  ---  --  ---xx  flac  0.6143  jgb1994-04-25d1t07.flac
    12:43.55      134722604 B  ---  --  ---xx  flac  0.6067  jgb1994-04-25d2t01.flac
    9:58.55      105616604 B  ---  --  ---xx  flac  0.5593  jgb1994-04-25d2t02.flac
    7:02.10      74464364 B  ---  --  ---xx  flac  0.5763  jgb1994-04-25d2t03.flac
    7:13.43      76482380 B  ---  --  ---xx  flac  0.6106  jgb1994-04-25d2t04.flac
    9:12.18      97415180 B  ---  --  ---xx  flac  0.5836  jgb1994-04-25d2t05.flac
    6:56.05      73394204 B  ---  --  ---xx  flac  0.5242  jgb1994-04-25d2t06.flac
    6:10.03      65275100 B  ---  --  ---xx  flac  0.5923  jgb1994-04-25d2t07.flac
  121:46.59    1288917784 B                            0.5795  (14 files)
Show Checksums
ffp
jgb1994-04-25d1t01.flac:65303f4a518a57623531fd2dece60fda
jgb1994-04-25d1t02.flac:5646442615e9684df42a0a7e5f45c6e7
jgb1994-04-25d1t03.flac:97f47d553878a1b5914fcf27fc855e92
jgb1994-04-25d1t04.flac:060b2b59242dfa5a1c89ebedeaa2da19
jgb1994-04-25d1t05.flac:dc990ee7ca792f670b9f6c8d8264c00a
jgb1994-04-25d1t06.flac:98b03978111446ede829d1bc8987b44b
jgb1994-04-25d1t07.flac:55b5d8bccbb8894b26bda2e3507c0743
jgb1994-04-25d2t01.flac:4a48d7590be98c3d20fc642b2ab3de34
jgb1994-04-25d2t02.flac:5d607eba7628f5cb9f77105a886dc075
jgb1994-04-25d2t03.flac:7944838b2e8a2fe5c2ba11d1d6e1e9c7
jgb1994-04-25d2t04.flac:df4710f652236c60e90cd1a63de61a33
jgb1994-04-25d2t05.flac:f56b7fb612e76904d2a245421cdaa730
jgb1994-04-25d2t06.flac:c577330f356eaafec18df4e25a247d51
jgb1994-04-25d2t07.flac:2f6066f4e7834f90e6a4b64dde111802
md5
f840d7287d6e34a98c030a4388cb6c6c *jgb1994-04-25d1t01.flac
dd7edbeb9f8f96afba4466a601f6c393 *jgb1994-04-25d1t02.flac
1e2bec5d8d2012dd93ce79755836e327 *jgb1994-04-25d1t03.flac
27c6862982a051d0cc523e61cb651b9b *jgb1994-04-25d1t04.flac
7d19a9b236affc57b49b64e67d7a839d *jgb1994-04-25d1t05.flac
3e220f81191baf3c5e3f48bacf53aa08 *jgb1994-04-25d1t06.flac
5a1827bebd34c501153d39839a12ca0d *jgb1994-04-25d1t07.flac
514a6c7822475f2361d78e47dbdfa3df *jgb1994-04-25d2t01.flac
deaf05530ff25c6e3b956290ed048fbc *jgb1994-04-25d2t02.flac
df6c882dd5b5db0d760d058656208f80 *jgb1994-04-25d2t03.flac
d6ce760ca81ad2f4b56e8f3d4bbfae42 *jgb1994-04-25d2t04.flac
cdaaa9474381600aa1a575df35817713 *jgb1994-04-25d2t05.flac
ed2820257c81ccd40af8a74098cc0a81 *jgb1994-04-25d2t06.flac
7647bf5664887063707d42e63591d76f *jgb1994-04-25d2t07.flac

Comments
Add Comment
Other Sources (comments)
Jerry Garcia Band: set II... (1) Jerry Garcia Band: set II:... (0)
Date User Comment