Browse Collections Artists Sources   Search Dates

Add Show    List Management    Help


Phish 05/23/00
Roseland Ballroom, New York, NY
Comments Add Comment    Source Collectors    Add to Collection    Add to Want List    History
Source # 97949 Other Sources
Entered by Jason Sobel
Checksums all_ffp , flac-md5
Disc Counts 2 / 3
Media Size
Date Circulated
Date Added
03/18/2009
03/18/2009
Source Summary SBD/AUD matrix; mixed by hansokolow 
Source Information - Download Text | Download Zip
Phish
Tuesday, May 23rd, 2000
Roseland Ballroom
New York, NY

       cd1  -  set 1
1)  AC/DC Bag
2)  Wilson
3)  First Tube
4)  Ya Mar >
5)  Mike's Song->
6)  Simple >
7)  It's Ice
8)  When The Circus Comes

       cd2
1)  Back On The Train
2)  Gotta Jibboo
3)  Taste
4)  Sleeping Monkey

            -  set 2
5)  Punch You In The Eye
6)  Twist
7)  Waste

cd3
1)  Piper
2)  You Enjoy Myself
3)  Run Like An Antelope
4)  Train Song
5)  Bug
6)    e:  Boogie On Reggae Woman
7)        Cavern

-----------------------------------

This is a matrix, done by hansokolow in ProTools, of the following digital sources:

DSBD: shnid=18561

SBD: SBD-> CD; with patches

-----------------------------------

AUD: shnid=90862

AUD: B&K 4021 > Apogee AD-1000 > Sony PCM-M1 (@ 44.1 kHz)
(recorded from the taper's section, front & center)

transfer:
Tascam DA-20MKII > Tascam HD-P2 > CF card > usb 2.0 > pc > Samplitude SE v9.1.1 (fades, tracking) > FLAC v1.2.1 (Level 8)

FLAC tags added with metaflac v1.2.1

recorded by Eric Vandercar
transferred by Jason Sobel ([email protected])
seeded March 17, 2008

-----------------------------------

hansokolow's notes:  Some slight cuts to make the sources line up, as they didn't quite match.  Some strangeness on the SBD source at the beginning of Wilson, which I cut out.  I stayed up all night to get into this show, and it was just amazing.  My face is still all over the floor of the Roseland because of this Piper.

    length     expanded size    cdr  WAVE problems  fmt   ratio  filename
     9:10.49       97135292 B   ---   --   ---xx  ph2000-05-23d1t01.flac
     7:25.29       78566252 B   ---   --   ---xx  ph2000-05-23d1t02.flac
     8:32.44       90420332 B   ---   --   ---xx  ph2000-05-23d1t03.flac
    15:56.71      168805436 B   ---   --   ---xx  ph2000-05-23d1t04.flac
     7:02.03       74447900 B   ---   --   ---xx  ph2000-05-23d1t05.flac
     8:25.40       89176124 B   ---   --   ---xx  ph2000-05-23d1t06.flac
     9:11.72       97365788 B   ---   --   ---xx  ph2000-05-23d1t07.flac
     5:34.21       58967036 B   ---   --   ---xx  ph2000-05-23d1t08.flac
     5:34.01       58919996 B   ---   --   ---xx  ph2000-05-23d2t01.flac
    10:47.45      114236684 B   ---   --   ---xx  ph2000-05-23d2t02.flac
    10:17.36      108923516 B   ---   --   ---xx  ph2000-05-23d2t03.flac
     6:06.31       64635356 B   ---   --   ---xx  ph2000-05-23d2t04.flac
     8:57.45       94832684 B   ---   --   ---xx  ph2000-05-23d2t05.flac
    10:39.73      112891340 B   ---   --   ---xx  ph2000-05-23d2t06.flac
     7:05.40       75064124 B   ---   --   ---xx  ph2000-05-23d2t07.flac
     9:41.01      102490796 B   ---   --   ---xx  ph2000-05-23d3t01.flac
    19:08.60      202648364 B   ---   --   ---xx  ph2000-05-23d3t02.flac
    13:19.26      141004796 B   ---   --   ---xx  ph2000-05-23d3t03.flac
     3:15.66       34553276 B   ---   --   ---xx  ph2000-05-23d3t04.flac
    13:16.72      140583788 B   ---   --   ---xx  ph2000-05-23d3t05.flac
     5:37.01       59449196 B   ---   --   ---xx  ph2000-05-23d3t06.flac
     7:04.40       74887724 B   ---   --   ---xx  ph2000-05-23d3t07.flac
   202:11.41     2140005800 B                            0.5838  (22 files)
Show Checksums
all_ffp
ph2000-05-23d1t01.flac:2003490ac7ff30e36aa077b40c28ace5
ph2000-05-23d1t02.flac:dfae5f3fff8fb9032ff78afc72d8f506
ph2000-05-23d1t03.flac:0e9db68bc2cc24b3821cb47845709da8
ph2000-05-23d1t04.flac:963ab209c49ed63ac233e629b9ddcd05
ph2000-05-23d1t05.flac:9d6def6ddf0a8487913f33d1c3df9389
ph2000-05-23d1t06.flac:ec60fca4b5f953755ec147b0653c884f
ph2000-05-23d1t07.flac:45847d63fad91ba1c43b3734ce622a58
ph2000-05-23d1t08.flac:8c87906f49e90d4fce8123584c80dd04
ph2000-05-23d2t01.flac:db8aebe89482ec6f7bb4ac854c2d555f
ph2000-05-23d2t02.flac:2b39ebc3581dc4ff1d52b288238d27d7
ph2000-05-23d2t03.flac:1cf46b5962f7bb95c2a0e5a96519f2e3
ph2000-05-23d2t04.flac:95669704c719470d6a0ce2db698ab08a
ph2000-05-23d2t05.flac:de656126e9b2b68141b1887adaa417b3
ph2000-05-23d2t06.flac:54b96e0a1fdbb4ab551b2ece20bd7cd1
ph2000-05-23d2t07.flac:95c04cb54db8cad79808e6e37329630e
ph2000-05-23d3t01.flac:d17b4bedde3f7f723bdac2ebdc596749
ph2000-05-23d3t02.flac:7335a673479feec943b80bc721818f3a
ph2000-05-23d3t03.flac:3054806cc3ed10f499609c841e410716
ph2000-05-23d3t04.flac:6edc909a5bff6253ab4c49a382fe2365
ph2000-05-23d3t05.flac:265986f0620e3ce847c48dac24fc1476
ph2000-05-23d3t06.flac:17d30b395b33644478dcba5f44150244
ph2000-05-23d3t07.flac:a4d7764aae72a1cb7e482db46b0e25fd
flac-md5
e6ba5649db5981db8fc8d3d73af94d43 *ph2000-05-23d1t01.flac
7d44b9eccd11e2923442e181cd44b23d *ph2000-05-23d1t02.flac
826c2c7d58e3d36c7660a9b17fd79085 *ph2000-05-23d1t03.flac
5e04592f1b06e68786e48ca8106b98c3 *ph2000-05-23d1t04.flac
cd6bfbb7649b7085be5e04c07804eb53 *ph2000-05-23d1t05.flac
c38e55e3142955a731c4151c9eb265f0 *ph2000-05-23d1t06.flac
acccb1ac93932ab7a69f7e89e894b1a6 *ph2000-05-23d1t07.flac
11c74a93e68d2ed767c1a44b409338f8 *ph2000-05-23d1t08.flac
3640cb441ef549d2b960d8424b88e5d6 *ph2000-05-23d2t01.flac
b94922aa1f6492b9ffcc2aa308d8f150 *ph2000-05-23d2t02.flac
7a5904a3da5de00d9413a1979683bc10 *ph2000-05-23d2t03.flac
ddeb3d71caf921db3ede9a53d12b3b42 *ph2000-05-23d2t04.flac
721f43cef81e20ed5e6f6ade8130b9ac *ph2000-05-23d2t05.flac
65456e13eddb6767ac6655c0870b7aa7 *ph2000-05-23d2t06.flac
114b013bb5f3d9aa4bbf723e005f8792 *ph2000-05-23d2t07.flac
79b6e618753139cc7f3da80aebc1faed *ph2000-05-23d3t01.flac
2cd2da0657aa5e69fa91c7ff4ebe475e *ph2000-05-23d3t02.flac
c6902e3bfa8348059b34d2265f856b73 *ph2000-05-23d3t03.flac
7a1e8884689c7d581d020a29a13129d0 *ph2000-05-23d3t04.flac
5e3d5abd33e1666d5c951a37543377e9 *ph2000-05-23d3t05.flac
009fca12ce02b43608b4644d64a2dac9 *ph2000-05-23d3t06.flac
c04b0b3a4601a9531678f529294894d3 *ph2000-05-23d3t07.flac

Comments
Add Comment
Other Sources (comments)
via lemon2; no info file-... (0) Schoeps m222 (tubes)/mk41>... (2) 3-disc retracking of I.... (2) B&K 4011'S (Ron Dalton's... (2) FOB Schoeps mk4 > kc5 >... (0) SBD > CD; CD > EAC > WAV >... (7) SBD > DAT(?) > cd > eac > flac (5) (soundcheck only) Schoeps... (0) B&K 4021 > Apogee AD-1000 >... (0) (FOB) Schoeps mk4 > kc5 >... (0) flac16; Cable TV... (0)
Date User Comment