Browse Collections Artists Sources   Search Dates

Add Show    List Management    Help


Karl Denson's Tiny Universe 05/30/09
Late Night, Mountain Jam, Hunter Mountain, NY
Comments Add Comment    Source Collectors    Add to Collection    Add to Want List    History
Source # 99592 Other Sources
Entered by
Checksums ffp
Disc Counts 0 / 0
Media Size Compressed: 1.02 GB (1099786364 bytes)
Date Circulated
Date Added
06/01/2009
06/17/2009
Source Summary Source: Schoeps CCM4V'S(din)>Lunatec V2>Benchmark AD2K> Sound Devices 722 (24/48)
Location: FOB/DFC/KFC/ZFC/AARP 50' From Stage, 7' High
DSP: Sound Devices 722>Sound Forge 9.0>CD Wave>flac(16)
Recorded By: Z-Man
Seeded By: Z-Man 
Source Information - Download Text | Download Zip
Karl Denson's Tiny Universe
Late Night
Mountain Jam
Hunter Mountain, New York
5/30/2009

Source: Schoeps CCM4V'S(din)>Lunatec V2>Benchmark AD2K>
Sound Devices 722 (24/48)
Location: FOB/DFC/KFC/ZFC/AARP 50' From Stage, 7' High
DSP: Sound Devices 722>Sound Forge 9.0>CD Wave>flac(16)
Recorded By: Z-Man
Seeded By: Z-Man

Disc I

01 Intro/Tuning
02 ?
03 ? >
04 I'm So Satisfied
05 I've Got A Groovy Thing
06 Front Money

Disc II

01 Clap Your Hands
02 *?
03 *? >
04 *? >
05 Drum Solo >
06 *?
07 I'm Fallin'

* With Warren Haynes on Guitar

Flac fingerprint

karldenson2009-05-30d01t01.flac:8cf62d6e4d2fd56e76328e01512d11fa
karldenson2009-05-30d01t02.flac:4ba6c4f3ff911c2ab956070b5c618028
karldenson2009-05-30d01t03.flac:d80174e4944ac8a935e40f98f89d65fb
karldenson2009-05-30d01t04.flac:1fde0844097a2f67c5b5a6c2b2ac08c9
karldenson2009-05-30d01t05.flac:527086c7ba479d1be402f2324a58b6b0
karldenson2009-05-30d01t06.flac:86c16c3535427eeb9f51ada82c06eea3
karldenson2009-05-30d02t01.flac:bb811f6ab9055dd78e344c58730faac1
karldenson2009-05-30d02t02.flac:457e206638148534adbfc60610bf7ee2
karldenson2009-05-30d02t03.flac:f4e0d30a25ac02a6c040aeb1d3405a0b
karldenson2009-05-30d02t04.flac:efc4d4a419585b1ecadd37c59cf2ab2f
karldenson2009-05-30d02t05.flac:dc3f9820e257d46e4d8df9eef3c3e252
karldenson2009-05-30d02t06.flac:2a616f2e4113bf2a57215e90d4494834
karldenson2009-05-30d02t07.flac:6c6e46439fe8efefdb240167b56de7f9

shntool

length expanded size cdr WAVE problems fmt ratio filename
1:58.19 20859932 B --- -- ---xx flac 0.2744 karldenson2009-05-30d01t01.flac
8:01.30 84919004 B --- -- ---xx flac 0.4910 karldenson2009-05-30d01t02.flac
7:22.62 78114668 B --- -- ---xx flac 0.5328 karldenson2009-05-30d01t03.flac
17:35.24 186158492 B --- -- ---xx flac 0.5239 karldenson2009-05-30d01t04.flac
7:03.49 74732492 B --- -- ---xx flac 0.5237 karldenson2009-05-30d01t05.flac
9:21.72 99129788 B --- -- ---xx flac 0.5095 karldenson2009-05-30d01t06.flac
4:34.22 48385388 B --- -- ---xx flac 0.5257 karldenson2009-05-30d02t01.flac
16:41.35 176658764 B --- -- ---xx flac 0.5075 karldenson2009-05-30d02t02.flac
9:39.04 102145052 B --- -- ---xx flac 0.4923 karldenson2009-05-30d02t03.flac
8:20.43 88301180 B --- -- ---xx flac 0.4982 karldenson2009-05-30d02t04.flac
1:45.71 18689036 B --- -- ---xx flac 0.4807 karldenson2009-05-30d02t05.flac
2:58.09 31420412 B --- -- ---xx flac 0.4722 karldenson2009-05-30d02t06.flac
8:31.56 90272156 B --- -- ---xx flac 0.4866 karldenson2009-05-30d02t07.flac
103:54.46 1099786364 B 0.5031 (13 files)
Show Checksums
ffp
karldenson2009-05-30d01t01.flac:8cf62d6e4d2fd56e76328e01512d11fa
karldenson2009-05-30d01t02.flac:4ba6c4f3ff911c2ab956070b5c618028
karldenson2009-05-30d01t03.flac:d80174e4944ac8a935e40f98f89d65fb
karldenson2009-05-30d01t04.flac:1fde0844097a2f67c5b5a6c2b2ac08c9
karldenson2009-05-30d01t05.flac:527086c7ba479d1be402f2324a58b6b0
karldenson2009-05-30d01t06.flac:86c16c3535427eeb9f51ada82c06eea3
karldenson2009-05-30d02t01.flac:bb811f6ab9055dd78e344c58730faac1
karldenson2009-05-30d02t02.flac:457e206638148534adbfc60610bf7ee2
karldenson2009-05-30d02t03.flac:f4e0d30a25ac02a6c040aeb1d3405a0b
karldenson2009-05-30d02t04.flac:efc4d4a419585b1ecadd37c59cf2ab2f
karldenson2009-05-30d02t05.flac:dc3f9820e257d46e4d8df9eef3c3e252
karldenson2009-05-30d02t06.flac:2a616f2e4113bf2a57215e90d4494834
karldenson2009-05-30d02t07.flac:6c6e46439fe8efefdb240167b56de7f9

Comments
Add Comment
Other Sources (comments)
Source: Neumann SKM 140's +... (0)
Date User Comment