Browse Collections Artists Sources   Search Dates

Add Show    List Management    Help


Garcia 10/05/86
The Stone, San Francisco, CA
Set I
Think
Knockin' On Heaven's Door
They Love Each Other >
Run For The Roses
I Shall Be Released
Gomorrah >
Deal
Set II
The Harder They Come
I'll Take A Melody
How Sweet It Is To Be Loved By You
That Lucky Old Sun
Reuben And Cherise >
Midnight Moonlight
Set III
 
Comment
Jerry Garcia Band
Last Changed By Joe Jupille
Sources
(20923) View Source   
Source: MAC(Nak700s>Sony TCD5M)>CDR>WAV>SHNv3. Taper: John Corley. First 2 tracks of the second set are omitted from the recording.
Click 'Edit Show' or the 'Set I(II)(III)' or 'Comment' text to make corrections.
If this is a duplicate or incorrect entry and should be merged, use the Request Merge page.

Collectors With This Show
User (active/rating) Media / # Show Sound Details DB Source User Source
BudChief (5/5) cdr / 2 View  
Born Cross Eyed (5/5) FLAC / 1 View 20923
Notes: Aud - Corley
Marc Dreilinger (5/2.3) SHN / 1 View 20923 JGB: MAC(Nak700s>Sony TCD5M)>CDR>WAV>SHNv3. Taper: John Corley. First 2 tracks of the...
Notes: Archived Box 1 Disc 359
Jeff Mitchell (5/0) / 0 View 20923
Jordan Jacobs (5/3) SHN / 0 View   AUD
Notes: MAC(Nak700s>Sony TCD5M)>CDR>WAV>SHNv3
thrak (5/5) shn / 2 View 20923 JGB: Source: MAC(Nak700s>Sony TCD5M)>CDR>WAV>SHNv3. Taper: John Corley. First 2...
wrs2lig (5/0) / 0 View 20923
Brent Easton (5/4.9) CDR / 1 A A View 20923 AUD
Michael Hughey (4/0) shn / 2 View 20923
joe m (3/5) SHN / 1 View 20923
Notes: DVD#132
Michael (3/0) SHN / 1 View 20923
cbass (3/5) SHN / 0 View 20923
Mike Pageau (3/0) AUD 14 / 2 View 20923
ziko (3/5) / 0 View 20923
shakedown80 (3/3.5) / 0 View 20923
CARL (3/3.7) / 0 View 20923
AlanZ (3/0) SHN / 2 View 20923
Notes: 20923
Lost Sailor (2/0) Shn / 0 View 20923 Source: MAC(Nak700s>Sony TCD5M)>CDR>WAV>SHNv3. Taper: John Corley. First 2 tracks of the second...
Michael McMullan (2/5) CDR/SHN / 2 A- View 20923 Aud
Notes: JGB
Luke Bailey (2/0) SHN / 2 View 20923 Jerry Garcia Band:MAC(Nak700s>Sony TCD5M)>CDR>WAV>SHNv3. Taper: John Corley. First 2...
Notes: Jerry Garcia Band:MAC(Nak700s>Sony TCD5M)>CDR>WAV>SHNv3. Taper: John Corley. First 2 tracks of the second set are omitted from the recording.
Danny Metz (1/5) SHN / 2 View 20923
Notes: Jerry Garcia Band
Gary Field (1/5) SHN / 1 View 20923 AUD
Notes: MAC(Nak700s>Sony TCD5M)>CDR>WAV>SHNv3. Taper: John Corley. First 2 tracks of the second set are omitted from the recording [070508.3]
John Peters (1/0) SHN / 1 View 20923 Nak700s > Sony TCD5M > CDR > WAV > SHNv3
SpiralLightofVenus (1/5) SHN / 0 AUD View 20923
Notes: AUD
SpiralLightofVenus (1/5) SHN / 0 AUD View 20923
Notes: AUD TB3
winterland121072 (1/0) / 0 View 20923
brett garvey (1/5) SHN / 2 A View 20923 MAC(Nak700s>Sony TCD5M)>CDR>WAV>SHNv3
Notes: garcia1986 2 of 3
LossLess Legs (1/0) CDR / 2 View 20923 MAC(Nak700s>Sony TCD5M)>CDR>WAV>SHNv3
Notes: 4/29/2007 - quimbo
Jeff Stivison (1/0) SHN / 0 View 20923 20923
Notes: Dead D.88
Jeff (1/5) SHN / 1 View 20923 MAC(Nak700s>Sony TCD5M)>CDR>WAV>SHNv3
Notes: AT507 Jerry Garcia Band 10-05-1986 The Stone San Francisco, CA Source: MAC(Nak700s>Sony TCD5M)>CDR>WAV>SHNv3. Taper: John Corley. Disc 1 - Set 1 01 Think [10:04] 02 Knockin' On Heaven's Door [11:32] 03 They Love Each Other > [06:50] 04 Run For The Roses [05:25] 05 I Shall Be Released [07:39] 06 Gomorrah// [05:34] 07 Deal [06:51] Total time: 53:56 Disc 2 - Set 2 MISSING Harder They Come MISSING I'll Take A Melody 01 How Sweet It Is (To Be Loved By You) [06:54] 02 That Lucky Old Sun (Just Rolls Around Heaven All Day) [09:41] 03 Reuben And Cherise > [07:23] 04 Midnight Moonlight [06:43] Total time: 30:42 Comments: Short set - Jerry's still a little rusty - 2nd post-coma public performance. Second set overall sounds more muffled than the first. Tape flip cuts the end of Gomorrah. First note of Deal missing from flip. Mic bump during d2t02. CDR source provided by J.Powell. DAE(EAC0.9b4 offset corrected, secure mode, QPS QUE2410)>tracking(cdwav editor)>sector boundaries confirmed(shntool)>SHN(shorten3.4) via C.Ladner. brought to you by the garciaseeds and misSHN freeks, 12/03. length expanded size cdr WAVE problems filename 10:04.21 106595036 --- -- ---xx jgb86-10-05d1t01.shn 11:31.66 122047676 --- -- ---xx jgb86-10-05d1t02.shn 6:49.67 72305228 --- -- ---xx jgb86-10-05d1t03.shn 5:25.00 57330044 --- -- ---xx jgb86-10-05d1t04.shn 7:39.42 81066428 --- -- ---xx jgb86-10-05d1t05.shn 5:34.71 59084636 --- -- ---xx jgb86-10-05d1t06.shn 6:50.73 72495740 --- -- ---xx jgb86-10-05d1t07.shn 6:53.70 73017884 --- -- ---xx jgb86-10-05d2t01.shn 9:41.47 102598988 --- -- ---xx jgb86-10-05d2t02.shn 7:23.37 78232268 --- -- ---xx jgb86-10-05d2t03.shn 6:43.15 71124524 --- -- ---xx jgb86-10-05d2t04.shn 84:38.59 895898452 B (totals for 11 files, 0.5651 overall compression ratio) 4cb3aa82f88da677f47de7fe625d3db6 *jgb86-10-05d1t01.shn 9f61206b18ac8131b989ce903cadbc7f *jgb86-10-05d1t02.shn 218c69be622257a9e394a19af259c36f *jgb86-10-05d1t03.shn 6662691ae31dd0be874e3ab2a44698e0 *jgb86-10-05d1t04.shn e5d471d19ef3e2595c26b9d9929611aa *jgb86-10-05d1t05.shn fe67088b3bfb7fe3b7589ace011a319a *jgb86-10-05d1t06.shn c796329d8503515bf0809945111155a2 *jgb86-10-05d1t07.shn 5b21da575de191baaf63930293392096 *jgb86-10-05d2t01.shn b603c1cc928732c8097a7bd325b3b003 *jgb86-10-05d2t02.shn 55ed31e052c95a7e507ab1dd9f0d1ab8 *jgb86-10-05d2t03.shn f22facaf83fa440ba0e28f8801bf60ef *jgb86-10-05d2t04.shn Size: 482 MB