Browse Collections Artists Sources   Search Dates

Add Show    List Management    Help


Medeski Martin & Wood 04/16/04
Tractor Travern, Seattle, WA
Set I
Improv > Improv > Bass Improv > Improv > Improv > Drum Solo > Improv > Improv > Improv
Set II
Improv > Improv > Open Improv > Improv > Improv > Improv > Improv > Open Improv > Improv

Encore: Sasa
Set III
 
Comment
 
Last Changed By duggy
Sources
(23968) View Source   
flac16; MBHO603/KA500H(NOS, DFC on 8ft stand) > V-3 > DA-P1 @ 16/44.1, recorded by Rob DegRado; DAT clone> FLAC Transfer by Russell S. Hergesell; note a separate DAT master> SHN version also circulates
(25960) View Source   
shn; Source: MBHO603/KA500H> V3(44.1kHz)> DA-P1 NOS DFC on 8' stand; DAT to SHN transfer source: DA-P1>Audiophile 2496> Soundforge 5.0> CDWav> mkwACT> SHN; Recorded, transferred by Rob DegRado; note a separate DAT clone> FLAC version also circulates
Click 'Edit Show' or the 'Set I(II)(III)' or 'Comment' text to make corrections.
If this is a duplicate or incorrect entry and should be merged, use the Request Merge page.

Collectors With This Show
User (active/rating) Media / # Show Sound Details DB Source User Source
Holden Caulfield (5/5) flac / 2 View 25960
Dwayne (5/5) cdr / 2 View   MBHO603/KA500H>V3(44.1kHz)>DA-P1 NOS DFC on 8' stand
michael webster (5/5) cdr / 2 A+ View   MBHO603/KA500H(NOS, DFC) > V-3 > DA-P1 @ 16/44.1
Notes: All improv show!
Jeff Mitchell (5/0) / 0 View 25960
thrak (5/5) flac / 2 View 23968 MBHO603/KA500H(NOS, DFC) > V-3 > DA-P1 @ 16/44.1
rabble (5/5) CD-R / 2 A+ A- View   MBHO603/KA500H > V3(44.1kHz) > DA-P1 NOS DFC on 8' stand > DA-P1 > Audiophile 2496 > Soundforge...
Notes: Definetly a veteran taper at work here, AMAZING quality for an AUD recording. All improv set, and one of my favorite MM&W boots.
Brad Foster (4/4.9) SHN / 2 View   MBHO603/KA500H>V3(44.1kHz)>DA-P1
bugboyfjp12 (4/0) shn / 0 View 25960
Shawn Smith (4/5) CDR / 2 A View 23968 MBHO603/KA500H(NOS, DFC) > V-3 > DA-P1 @ 16/44.1
Notes: all improv show.
Michael Earnshaw (4/0) AUD / 2 A View 23968
Notes: All improv.
Brian (4/4.8) AUD / 2 View  
Notes: DAO
Jeff Kaisershot (3/5) SHN / 0 A View 25960 MBHO603/KA500H> V3(44.1kHz)> DA-P1 NOS DFC on 8' stand; DAT to SHN transfer source:...
Shoop (3/5) SHN / 2 View 23968 MBHO 603/KA500 > Lunatec V3 (@44.1kHz) > DA-P1
Mike Vescovo (3/4.9) SHN / 2 View 23968 MBHO603/KA500H(NOS, DFC) > V-3 > DA-P1 @ 16/44.1
Notes: on DVD 021
Drew Whorley (3/5) / 3 View  
Notes: shn
Mia724 (3/0) CDR / 2 View  
Tom Luhrs (3/0) SHN / 2 View 25960 MBHO603/KA500H>V3(44.1kHz)>DA-P1 NOS DFC on 8' stand; DA-P1>Audiophile...
Tom Luhrs (3/0) FLAC / 2 View 23968 MBHO603/KA500H(NOS, DFC)>V-3>DA-P1 @ 16/44.1
Matt Havron (3/5) cdr / 2 View  
Mike In Boone (2/5) CDR / 2 A A View   MBHO 603/KA500H>V3>DA-P1
Joe Breault (2/0) cdr / 2 View   MBHO603/KA500H>V3(44.1kHz)>DA-P1 NOS DFC on 8' stand
Notes: All improv show
Andrew Long (2/4.8) shn / 2 View 25960 AUD
Notes: 797MB
Jonathan Hatgis (2/0) shn / 2 View 25960
Notes: shn; Source: MBHO603/KA500H> V3(44.1kHz)> DA-P1 NOS DFC on 8' stand; DAT to SHN transfer source: DA-P1>Audiophile 2496> Soundforge 5.0> CDWav> mkwACT> SHN; Recorded, transferred by Rob DegRado; note 100% IMPROV
Paul Hofferkamp (2/4.7) CDR / 2 View 23968 MBHO603/KA500H(NOS, DFC on 8ft stand) > V-3 > DA-P1 @ 16/44.1
A. Davis (2/4.2) FLAC / 2 View 23968 MBHO603/KA500H(NOS, DFC) > V-3 > DA-P1 @ 16/44.1
thegreatdivide6 (1/0) flac / 0 View 25960 MBHO603/KA500H>V3(44.1kHz)>DA-P1 NOS DFC on 8' stand
Notes: audience
David Sena (1/0) DVD Bk24 / 2 View 25960
Tim (1/0) CDR / 2 View   MBHO603/KA500H(NOS, DFC) > V-3 > DA-P1 @ 16/44.1
- j (1/4.9) FLAC / 2 nyr View 23968 see FLAC info... [MBHO603]
Jeff (1/5) FLAC / 2 View 25960 MBHO603/KA500H(NOS, DFC) > V-3 > DA-P1 @ 16/44.1
Notes: AT35 Medeski, Martin and Wood, 4-16-2004, The Tractor, Seattle, WA. Source: MBHO603/KA500H(NOS, DFC) > V-3 > DA-P1 @ 16/44.1 Taper: Rob DeGrado Transfer: Russell S. Hergesell This show was all improvisation except the encore, which is a new song off their summer 2004 release (Sasa). Size: 797 MB length expanded size cdr WAVE problems filename 6:57.00 73558844 --- -- ---xx mmw2004-4-16s1t01.flac 9:36.67 101764028 --- -- ---xx mmw2004-4-16s1t02.flac 9:12.21 97422236 --- -- ---xx mmw2004-4-16s1t03.flac 9:55.03 104965100 --- -- ---xx mmw2004-4-16s1t04.flac 6:43.64 71239772 --- -- ---xx mmw2004-4-16s1t05.flac 17:13.53 182345900 --- -- ---xx mmw2004-4-16s1t06.flac 13:04.39 138389372 --- -- ---xx mmw2004-4-16s2t01.flac 11:23.60 120622364 --- -- ---xx mmw2004-4-16s2t02.flac 9:20.24 98840492 --- -- ---xx mmw2004-4-16s2t03.flac 8:22.73 88724540 --- -- ---xx mmw2004-4-16s2t04.flac 9:38.61 102102716 --- -- ---xx mmw2004-4-16s2t05.flac 18:13.23 192859340 --- -- ---xx mmw2004-4-16s2t06.flac 7:41.25 81379244 --- -- ---xx mmw2004-4-16s2t07.flac 137:23.63 1386.85 MB (totals for 13 files, 0.5754 overall compression ratio) mmw2004-4-16s1t01.flac:3c90e7a03f4d33c1fd46ef197d4d339f mmw2004-4-16s1t02.flac:97fbe4dca98418d74767b2afac148758 mmw2004-4-16s1t03.flac:512b1e5ba6c5140b0b63f724fe89116b mmw2004-4-16s1t04.flac:2bf27f7e87e9bb8f2f5ebc26509233ed mmw2004-4-16s1t05.flac:502021df01e8faea758785b540a3f267 mmw2004-4-16s1t06.flac:b069e9b7618a25df0dc3beab2986b0ca mmw2004-4-16s2t01.flac:7f143fd6d7056c14f52571a808f000e7 mmw2004-4-16s2t02.flac:17abd24c23c9c98ebeb05e6589752095 mmw2004-4-16s2t03.flac:cf114cd1359d751628ed5c3b6913c7e0 mmw2004-4-16s2t04.flac:e240590d3dc8168b987cf38bb4cb8aed mmw2004-4-16s2t05.flac:7c8119509f7f5f9e6b3f5fb496e48238 mmw2004-4-16s2t06.flac:19b9a777ee79b8a4affdd6a235b2ca8c mmw2004-4-16s2t07.flac:63ab02a64bb95763d049a796d6ed0bf9