Browse Collections Artists Sources   Search Dates

Add Show    List Management    Help


Medeski Martin & Wood 03/18/05
Jannus Landing, St. Petersburg, FL
Set I
Improv > End Of The World Party > Open Improv > Mami Gato, Open Intro > Sasa > Think > Drum Solo
Set II
The Letter, Curtis > Open Improv > Reflector > Drum Solo > Lonely Avenue*, Paris, New Planet > Toy Dancing, Who The Fuck?

Encore: Bubblehouse
Set III
 
Comment
* w/ Everyday People teases
Last Changed By duggy
Sources
(28733) View Source   
flac16; Source: Schoeps CCM4V cardioids > Schoeps K5LU XLR > Lunatec V3 (24b/96KHz) > Nuendo Audiolink 96 Multiset > Fujitsu P2120 > WaveLab 4.01b (ORTF 9' high, center 20' front of SBD); WaveLab 4.01b > flac 1.1.2a -8V (no DAE); Taped/Transferred by Paul Chrostowski; Tracked by Mike Vescovo
(29291) View Source   
flac16; Studio Projects LSD2 (cards x/y 90*, fob, dfc)> Lunatec V3 (24bit/96k)> PDAudio-CF> iPaq 3835 (Live2496, Addonics Pocket ExDrive); Wave Lab 5 (fades, ^patch d1t01 d1t06 d1t07, resample, Apogee uv22hr dither); CDWave (tracks); Taped by Craig Taraszki
(29292) View Source   
flac24; Studio Projects LSD2 (cards x/y 90*, fob, dfc)> Lunatec V3 (24bit/96k)> PDAudio-CF> iPaq 3835 (Live2496, Addonics Pocket ExDrive); Wave Lab 5 (fades, ^patch d1t01 d1t06 d1t07); CDWave (tracks); Taped by by Craig Taraszki
Click 'Edit Show' or the 'Set I(II)(III)' or 'Comment' text to make corrections.
If this is a duplicate or incorrect entry and should be merged, use the Request Merge page.

Collectors With This Show
User (active/rating) Media / # Show Sound Details DB Source User Source
michael webster (5/5) cdr / 2 A+ View 28733 Scoeps CCM4V cardoids > Scoeps K5LUXLR > LunatecV3 (24b/96KHz) > Nuendo Audiolink96...
thrak (5/5) flac / 2 View 28733 Schoeps CCM4V cardioids > Schoeps K5LU XLR > Lunatec V3 (24b/96KHz) > Nuendo Audiolink...
Hyzershot (5/5) cd-r / 2 View   SP C-4's (card's x-y 90* w/ A81WS) > UA-5 p-mod+ > optical > JB3 @ 44.1
Notes: Source: SP C-4's (card's x-y 90* fob w/ A81WS) > UA-5 p-mod+ > optical in JB3 @ 44.1
Brad Foster (4/4.9) FLAC / 2 View   Schoeps CCM4V cardioids > K5LU > V3 > Nuendo Audiolink 96 Multiset > Fujitsu P2120...
Michael Earnshaw (4/0) AUD / 2 A View 28733 Schoeps CCM4V cardioids
J (3/0) / 0 View 28733
Mike Vescovo (3/4.9) FLAC / 2 A- A View 28733 Schoeps CCM4V cardioids > Schoeps K5LU XLR >
Notes: on DVD 002
ribsnwhiskey (3/1) cdr / 2 View 28733 Schoeps CCM4V cardioids > Schoeps K5LU XLR > Lunatec V3 (24b/96KHz) > Nuendo Audiolink...
Tom Luhrs (3/0) FLAC / 2 View 28733 Schoeps CCM4V cardioids>Schoeps K5LU XLR>Lunatec V3(24b/96KHz)>Nuendo Audiolink 96...
Tom Luhrs (3/0) FLAC / 2 View 29291 Studio Projects LSD2(cards x/y 90*, fob, dfc)>Lunatec V3(24bit/96k)>PDAudio-CF>iPaq...
Ben Ferreira (3/0) / 2 View 28733
Brent Wallace (2/5) / 2 A View  
Notes:
Paul Hofferkamp (2/4.7) CDR / 2 View 28733 Schoeps CCM4V cardioids > Schoeps K5LU XLR > Lunatec V3 (24b/96KHz) > Nuendo Audiolink...
Joe Michiels (2/0) cd-r / 2 View 29291
brett garvey (1/5) FLAC / 2 A View 28733 Schoeps CCM4V cardioids > Schoeps K5LU XLR > Lunatec V3 (24b/96KHz) > Nuendo Audiolink 96...
Notes: mmw2005 2 of 10
Jeff (1/5) FLAC / 2 View 29291 LSD2 (cards x/y 90*, fob, dfc)> Lunatec V3 (24bit/96k)> PDAudio-CF> iPaq 3835 (Live2496,...
Notes: AT77 Medeski, Martin & Wood March 18, 2005 Jannus Landing - St. Petersburg, FL Source: Studio Projects LSD2 (cards x/y 90*, fob, dfc)> Lunatec V3 (24bit/96k)> PDAudio-CF> iPaq 3835 (Live2496, Addonics Pocket ExDrive); Wave Lab 5 (fades, ^patch d1t01 d1t06 d1t07, resample, Apogee uv22hr dither); CDWave (tracks) Recorded by Craig Taraszki ([email protected]) Disc #1 Set 1 1. Improv ^ 2. End of the World Party> 3. Open> 4. Mami Gato 5. Sasa> 6. Think> ^ 7. Drum Solo ^ Disc #2 Set 2 1. The Letter 2. Curtis> 3. Reflector> 4. Lonely Avenue* 5. Paris 6. New Planet> 7. Toy Dancing 8. Who The Fuck 9. E: Bubblehouse * w/ Everyday People teases ^ patched with AKG 483> Oade m148> Mod-SBM1 d1t01 0:00-3:01 d1t06 10:28-11:57 d1t07 0:00-1:58 Size: 727 MB FLAC Fingerprint: mmw2005-03-18d1t01.flac:d930b5915b2a6fb020cb7402b7579744 mmw2005-03-18d1t02.flac:f17c0fbfe303aa8b05247caae6b22c8e mmw2005-03-18d1t03.flac:fcf1a697845552eba13a0cfed8c546af mmw2005-03-18d1t04.flac:f89eed64a3a4ba19c94801acbbb377f6 mmw2005-03-18d1t05.flac:f4940d2fa34e53f788c75b851fb25609 mmw2005-03-18d1t06.flac:20be0e10f12b4d076bfed7df519e48b0 mmw2005-03-18d1t07.flac:0d339013020374e04cc0f5e9428d4a81 mmw2005-03-18d2t01.flac:15c8d0c171ab90302ab9a4ee9505c1cb mmw2005-03-18d2t02.flac:c9f8277f1509ac87e68c74b2537df6ff mmw2005-03-18d2t03.flac:4cb7acb99652cb6291c81aea5a39e39a mmw2005-03-18d2t04.flac:d013e3f34caf5ba14bc15c487363b8b7 mmw2005-03-18d2t05.flac:53dbcfd2d44ff4b20a3e918259026946 mmw2005-03-18d2t06.flac:e3599c2783a96cc2f2915325898272de mmw2005-03-18d2t07.flac:7e1739db7881b44b6a97583663af794f mmw2005-03-18d2t08.flac:76294b49fd17eb9cddf33acad8d3f7a7 mmw2005-03-18d2t09.flac:833e6742aed87e12ea7286bf4d4a7eca length expanded size cdr WAVE problems filename 10:47.45 114236684 --- -- ---xx mmw2005-03-18d1t01.flac 10:41.22 113124188 --- -- ---xx mmw2005-03-18d1t02.flac 3:13.40 34139324 --- -- ---xx mmw2005-03-18d1t03.flac 12:06.07 128082908 --- -- ---xx mmw2005-03-18d1t04.flac 13:03.47 138231788 --- -- ---xx mmw2005-03-18d1t05.flac 11:57.27 126542348 --- -- ---xx mmw2005-03-18d1t06.flac 4:03.12 42893468 --- -- ---xx mmw2005-03-18d1t07.flac 7:00.14 74120972 --- -- ---xx mmw2005-03-18d2t01.flac 14:47.72 156636188 --- -- ---xx mmw2005-03-18d2t02.flac 9:31.46 100832636 --- -- ---xx mmw2005-03-18d2t03.flac 7:40.45 81249884 --- -- ---xx mmw2005-03-18d2t04.flac 7:31.17 79596428 --- -- ---xx mmw2005-03-18d2t05.flac 6:56.26 73443596 --- -- ---xx mmw2005-03-18d2t06.flac 11:05.14 117338972 --- -- ---xx mmw2005-03-18d2t07.flac 5:51.35 61998764 --- -- ---xx mmw2005-03-18d2t08.flac 9:31.13 100755020 --- -- ---xx mmw2005-03-18d2t09.flac 145:48.32 1471.73 MB (totals for 16 files, 0.4945 overall compression ratio)
Sigmund BoPs (1/5) CD-R / 2 View 28733
Justin D. (1/5) CDR / 2 A+ A+ View   Schoeps CCM4V cardioids > Schoeps K5LU XLR > Lunatec V3 (24b/96KHz) > Nuendo Audiolink...
Notes: '05 Think & Bubblehouse!
duggy (0/4.1) FLAC DVD / 1 View 28733 Schoeps CCM4V cardioids > Schoeps K5LU XLR > Lunatec V3 (24b/96KHz) > Nuendo Audiolink...
duggy (0/4.1) FLAC DVD / 1 View 29291 flac16; Studio Projects LSD2 (cards x/y 90*, fob, dfc)> Lunatec V3 (24bit/96k)> PDAudio-CF> iPaq...
Ryan Snyder (0/0) FLAC / 2 A- View   aud
Matt Reynolds (0/0) CDR / 2 A+ A- View  
Michael Indrigo (0/1) CD-R / 2 View 28733