Browse Collections Artists Sources   Search Dates

Add Show    List Management    Help


Medeski Martin & Wood 04/16/05
Barrymore Theatre, Madison, WI
Set I
Improv > Improv > Improv > Improv > Gospel Improv > Open Improv > Pocket Knife > Paris, New Planet, The Letter
Set II
Curtis > Improv > What'd I Say Improv^ > Open Improv* > Who The Fuck?*, Is There Anybody Here That Love My Jesus > Bass Solo > Shine It > Reflector (w/ Drum Solo) > Lonely Avenue

Encore: Chanting#, Bubblehouse
Set III
 
Comment
^ John is not really playing the melody, but the structure of this is *exactly* the same -- See 4/14/2005 for another example, albeit quite different
* w/ Dominic Placo on trumpet
# w/ John Thundercloud & Bros.; Billy joins in part way
Last Changed By duggy
Sources
(29050) View Source   
flac16; Source: Neumann ak40 (XY, 90?, 8') > lc3 > km100 (no XLR cable) > Sound Devices MP-2 > Oade Line Stage Mod Sony SBM-1 > 7-pin optical > Creative Nomad Jukebox 3 (@44.1); Creative Nomad Jukebox 3 > FireWire > CDWav > FLAC; Taped & transferred by Paul Hofferkamp
(29051) View Source   
flac16; Source: Schoeps CCM4V>Lunatec V>Modified sbm-1; Sony PCM-R500>VX Pocket>Samplitude>SF(fades)>CDWav>Flac16; Taped & transferred by Kevin Hughes
Click 'Edit Show' or the 'Set I(II)(III)' or 'Comment' text to make corrections.
If this is a duplicate or incorrect entry and should be merged, use the Request Merge page.

Collectors With This Show
User (active/rating) Media / # Show Sound Details DB Source User Source
michael webster (5/5) cdr / 2 A+ View   Schoeps CCM4V>Lunatec V>Modified sbm-1
Notes: my 3rd MMW show, w/Johnny Thundercloud
Scott Heath (5/5) AUDIO / 2 View 29050 Neumann ak40 (XY, 90, 8') > lc3 > km100 (no XLR cable) > Sound Devices MP-2 > Oade...
thrak (5/5) flac / 2 View 29051 Schoeps CCM4V>Lunatec V>Modified sbm-1
thrak (5/5) flac24 / 2 View 29051 Schoeps CCM4V > Lunatec V3(24bit/48k) > VX Pocket > Wavelab 4.0
Scott Sandler (5/5) flac / 2 A A View 29051 Schoeps CCM4V
Wayne and Sarah (5/4.6) cdr / 3 View  
Notes: flac16; Schoeps CCM4V>Lunatec V>Modified sbm-1; Sony PCM-R500>VX Pocket>Samplitude>SF(fades)>CDWav>Flac16; Taped & transferred by Kevin Hughes
Jon (5/0) CDR / 2 A A View  
Mike Woellert (5/4.6) CD-R / 2 View   Schoeps ccm4v > V2 >Mod SBM-1 > DAT
Notes: Schoeps ccm4v > V2 >Mod SBM-1 > DAT
Shawn Smith (4/5) CDR / 2 A+ View 29051 Schoeps CCM4V>Lunatec V>Modified sbm-1
Adam Olsen (4/5) cdr / 2 View  
Kevin White (4/5) Flac / 2 View 29051
Notes: MMW Compilation DVD
Dan Cook (4/5) FLAC / 2 A A+ View  
Notes: ***24-bit**
Shoop (3/5) FLAC / 2 View 29051 Schoeps CCM4v > Lunatec V > mod SBM-1 > DAT
Mike Vescovo (3/4.9) FLAC / 2 A+ View 29050 Neumann ak40 (XY, 90, 8') > lc3 > km100 (no XLR cable) > Sound Devices MP-2 >
Notes: on DVD 004, 013
Aaron Barger (3/0) FLAC / 2 View 29051
marc lowenstein (3/0) / 2 View  
Tom Luhrs (3/0) FLAC / 2 View 29050 Neumann ak40(XY,90°,8')>lc3>km100(no XLR cable)>Sound Devices MP-2>Oade Line...
Tom Luhrs (3/0) FLAC / 2 View 29051 Schoeps CCM4V>Lunatec V>Modified sbm-1; Sony PCM-R500>VX...
adam levinson (3/0) cdr / 2 View  
Sallymags (3/5) FLAC / 0 View  
Mighty Little (2/5) / 2 View  
Brent Wallace (2/5) / 2 A View  
Notes:
Paul Hofferkamp (2/4.7) CDR, FLAC / 2 View 29050 Neumann ak40 (XY @ 90, 8') > lc3 > km100 (no XLR cable) > Sound Devices MP-2 > Oade...
Notes: Also on DAT
Bob Wall (2/0) / 0 View  
brett garvey (1/5) FLAC / 2 A View 29051 Schoeps CCM4V>Lunatec V>Modified sbm-1; Sony PCM-R500>VX Pocket>Samplitude>SF(fades)>CDWav>Flac
Notes: mmw2005 3 of 10
Maria Reine (1/0) CD-R / 2 View  
Notes: Audience recording > Neumann ak40 (XY, 90?, 8 feet) > lc3 > km100 (no XLR cable) > Sound Devices MP-2 > Oade Line Stage Mod Sony SBM-1 > 7-pin optical > Jukebox 3 > firewire > WAV > CD Wave > FLAC. FLAC
Jeff (1/5) FLAC / 2 View 29051 Schoeps CCM4V>Lunatec V>Modified sbm-1
Notes: AT73 Medeski, Martin and Wood Barrymore Theater Madison, WI April 16, 2005 Source: Schoeps CCM4V>Lunatec V>Modified sbm-1 Transfer: Sony PCM-R500>VX Pocket>Samplitude>SF(fades)>CDWav>Flac16 Recorded and transferred by Kevin Hughes ([email protected]) Disc 1 Set 1 1. Jam 2. Paris 3. New Planet 4. The Letter Set 2 5. Curtis 6. Who The Fuck?(1) Disc 2 Set 2 cont. 1. Is There Anybody Here That Love My Jesus? 2. Shine It 3. Reflector 4. Lonely Avenue 5. (e)Thundercloud and Friends (local American Indian group) 6. (e)Bubblehouse 1 With Don Blacko on Trumpet Size: 859 MB mmw2005-04-16schoepsd1t01.flac:a5040a93169060089f7a2db0c98c3773 mmw2005-04-16schoepsd1t02.flac:d49d5e26164d7f84fca8a15af6615eb2 mmw2005-04-16schoepsd1t03.flac:7f85252319625dc8b11af16b765fb622 mmw2005-04-16schoepsd1t04.flac:d48c7a2b1f32719e69fd579a9b593dba mmw2005-04-16schoepsd1t05.flac:772090f812c920f11ef48d0650caf2a2 mmw2005-04-16schoepsd1t06.flac:dde259a19bd80130327ce60f58aadc74 mmw2005-04-16schoepsd2t01.flac:edc80c9bf9a8eb0f0e3679302529e710 mmw2005-04-16schoepsd2t02.flac:1fce59d83b574d601038de915e062458 mmw2005-04-16schoepsd2t03.flac:1f0adbbc5af18ebed3f412d6c8bd61b8 mmw2005-04-16schoepsd2t04.flac:8b04e5ae2c66a4acfee12ce260061dff mmw2005-04-16schoepsd2t05.flac:3e1b370f28ecea6077048105ad7d56f2 mmw2005-04-16schoepsd2t06.flac:fb9fdf48894fce1f06c946496ff88325 length expanded size cdr WAVE problems filename 41:09.30 435602204 --- -- ---xx mmw2005-04-16schoepsd1t01.flac 8:29.64 89938172 --- -- ---xx mmw2005-04-16schoepsd1t02.flac 6:44.07 71282108 --- -- ---xx mmw2005-04-16schoepsd1t03.flac 5:59.05 63339404 --- -- ---xx mmw2005-04-16schoepsd1t04.flac 19:24.67 205487228 --- -- ---xx mmw2005-04-16schoepsd1t05.flac 4:03.36 42949916 --- -- ---xx mmw2005-04-16schoepsd1t06.flac 10:54.61 115509116 --- -- ---xx mmw2005-04-16schoepsd2t01.flac 9:16.46 98186636 --- -- ---xx mmw2005-04-16schoepsd2t02.flac 11:34.69 122583932 --- -- ---xx mmw2005-04-16schoepsd2t03.flac 9:47.41 103643276 --- -- ---xx mmw2005-04-16schoepsd2t04.flac 9:12.52 97495148 --- -- ---xx mmw2005-04-16schoepsd2t05.flac 8:48.12 93167468 --- -- ---xx mmw2005-04-16schoepsd2t06.flac 145:25.40 1467.88 MB (totals for 12 files, 0.5817 overall compression ratio)
Sigmund BoPs (1/5) CD-R / 2 View 29050
Patrick M. (1/4.9) Flac / 2 View 29050 Neumann ak40
Patrick M. (1/4.9) Flac 24 / 3 View   24 bit - Schoeps CCM4V