Browse Collections Artists Sources   Search Dates

Add Show    List Management    Help


Phish 11/10/90
Earlham College, Richmond, IN
Set I
Reba, The Landlady > Bouncing Around the Room, Runaway Jim, Cavern, My Sweet One, Buried Alive > Lizards, Mike's Song > I am Hydrogen > Weekapaug Groove
Set II
Suzie Greenberg, You Enjoy Myself, The Asse Festival, Fee, Llama, Divided Sky, Bike, Possum
Set III

Comment

Last Changed By System
Sources
(27325) View Source   
SBD > Cass/x
(27690) View Source   
SBD> Cass/2; Dennon DRW-840 > Sony PCM-r500 @44.1kHz > Audiophile 2496 > Samplitude 5.5 > CDWav > FLAC
(29204) View Source   
Note: This is a pitched fix version of this source; Remastering by Marmar
Click 'Edit Show' or the 'Set I(II)(III)' or 'Comment' text to make corrections.
If this is a duplicate or incorrect entry and should be merged, use the Request Merge page.

Collectors With This Show
User (active/rating) Media / # Show Sound Details DB Source User Source
Jonathan (5/0) / 2 View 29204
Notes: Fileset in Archive.
PhishJY (5/5) CD / 2 View 29204
Notes: 212
Jud (5/5) SHN / 2 A View 27325 SBD > Cass/x
Notes: SHNs Available
Keith Deshane (5/0) / 0 View 29204
Ifthir (5/0) .flac / 0 View 29204
shakedown80 (5/3.5) / 0 View 29204
Michael Mersand (5/0) / 0 View 29204
Brandon Johnston (5/4.9) FLAC / 1 View 27325 Sbd > Cass/x
Jeff Mitchell (5/0) / 0 View 27325
Jeff Mitchell (5/0) / 0 View 29204
Jeff Mitchell (5/0) / 0 View 27690
Ben Mohr (5/5) FLAC / 2 View 29204 SBD> Cass/2; Dennon DRW-840 > Sony PCM-r500 @44.1kHz > Audiophile 2496 > Samplitude...
Notes: Pitch fixed version
GBL (5/0) / 0 View 27325
GBL (5/0) / 0 View 29204
Ben Wirth (5/5) FLAC / 0 View 29204
Ben Wirth (5/5) FLAC / 0 View 27325
Justin (5/0) FLAC / 2 View 27325
Shane (5/0) FLAC / 2 View 27325 SBD > cass/x
Scott Sandler (5/5) flac / 2 A A View 27325 SBD
Derick Andrade -- (5/5) / 0 View 27325 SBD > Cass/x
Notes: Transfer: Sony TC-KA3ES > Lucid AD 9624 A/D > SLOTH
Wayne and Sarah (5/4.6) FLAC / 2 View  
Bill Conrad (5/5) FLAC / 2 A+ View 27325
Kyle (5/5) CDR / 2 A View  
Feel the Heat (5/5) FLAC/CDR / 1 View  
Notes: matches etree set 1 & partial set 2
Feel the Heat (5/5) FLAC/CDR / 2 View 27690
Notes: MD'5 matches etree. Complete copy of source.
Timothy Henningsen (5/5) FLAC / 2 A A View 27325 Soundboard
Jay Thomson (5/4.9) FLAC / 1 View 27690 SBD> Cass/2; Dennon DRW-840> Sony PCM-r500 at 44.1> Audiophile 2496> Samplitude 5.5> CD Wave...
phishinNYC (5/5) FLAC / 2 View 27690 SBD> Cass/2
Notes: Phish - 11/10/90 Earlham College - Richmond, IN. Source: SBD> Cass/2 Transfer: Dennon DRW-840> Sony PCM-r500 at 44.1> Audiophile 2496> Samplitude 5.5> CD Wave Editor to track> FLAC on 12/29/04 Disc 1 - Set I - 62min t01 - Tuning/ t02 - /Reba t03 - The Landlady-> t04 - Bouncin Around the Room t05 - Runaway Jim t06 - Cavern t07 - My Sweet One t08 - Buried Alive-> t09 - The Lizards t10 - /Mike's Song-> t11 - I am Hydrogen-> t12 - Weekapaug Groove Disc 2 - Set II - 68min t01 - /Suzy Greenberg t02 - You Enjoy Myself-> t03 - The Asse Festival t04 - Fee/ t05 - Llama t06 - Divided/Sky t07 - Bike* t08 - Possum *first performance SHNTOOL output length expanded size cdr WAVE problems filename 0:37.17 6566828 --- -- ----- ph1990-11-10d1t01.wav 11:07.11 117684716 --- -- ----- ph1990-11-10d1t02.wav 4:04.62 43187468 --- -- ----- ph1990-11-10d1t03.wav 3:52.19 40969532 --- -- ----- ph1990-11-10d1t04.wav 6:20.01 67034396 --- -- ----- ph1990-11-10d1t05.wav 4:40.64 49542572 --- -- ----- ph1990-11-10d1t06.wav 2:28.21 26156636 --- -- ----- ph1990-11-10d1t07.wav 2:36.50 27636044 --- -- ----- ph1990-11-10d1t08.wav 10:24.59 110212412 --- -- ----- ph1990-11-10d1t09.wav 6:35.22 69729788 --- -- ----- ph1990-11-10d1t10.wav 2:29.74 26457692 --- -- ----- ph1990-11-10d1t11.wav 6:28.67 68600828 --- -- ----- ph1990-11-10d1t12.wav 5:39.60 59940764 --- -- ----- ph1990-11-10d2t01.wav 17:44.43 187790780 --- -- ----- ph1990-11-10d2t02.wav 2:02.42 21619628 --- -- ----- ph1990-11-10d2t03.wav 5:23.52 57099548 --- -- ----- ph1990-11-10d2t04.wav 4:47.05 50638604 --- -- ----- ph1990-11-10d2t05.wav 12:54.22 136585388 --- -- ----- ph1990-11-10d2t06.wav 8:17.40 87764924 --- -- ----- ph1990-11-10d2t07.wav 10:28.01 110781596 --- -- ----- ph1990-11-10d2t08.wav 129:03.57 1366000144 B (totals for 20 files, 1.0000 o verall compression ratio) verall compression ratio)
Erin (5/5) CDR/SHN / 2 View 27325 SBD
Erin (5/5) CDR/SHN / 2 View 29204 SBD > Cass/2 remastered