Browse Collections Artists Sources   Search Dates

Add Show    List Management    Help


Medeski Martin & Wood 12/06/97
Tennesse Theater, Knoxville, TN
Set I
Jam > Basso Profundo > Drums > Bass > Jam, Big Time , Cape Verdean Blues
Set II
Jam > Combustication > Start/Stop, Latin Shuffle > Bass, Coconut Boogaloo, Just Like I Pictured it, Sugarcraft, No Ke Ano Ahiahi, This Here, Night Marchers, Encore: Chubb Sub
Set III
 
Comment
 
Last Changed By Hamilton, Greg & Diana
Sources
(26956) View Source   
flac16: SBD + Schoeps MK4v + CMC6 + Earthworks TC30K > Sonosax PR-4 > Apogee A/D500E > DAT; Transfer: Tascam DA-20 MK II > Audiophile 2496 > Sound Forge 7 > CD Wave > Flac Level 8 by Mike Vescovo
Click 'Edit Show' or the 'Set I(II)(III)' or 'Comment' text to make corrections.
If this is a duplicate or incorrect entry and should be merged, use the Request Merge page.

Collectors With This Show
User (active/rating) Media / # Show Sound Details DB Source User Source
Tom Luhrs (3/0) FLAC / 2 View 26956 SBD + Schoeps MK4v + CMC6 + Earthworks TC30K>Sonosax PR-4>Apogee A/D500E>DAT; Tascam...
shacklyn75 (3/0) cdr / 2 A++ View   sbd+aud:schoeps mk4v/cmc6
Notes: Medeski Martin & Wood December 6, 1997 Tennessee Theater Knoxville, TN Source: SBD + Schoeps MK4v + CMC6 + Earthworks TC30K > Sonosax PR-4 > Apogee A/D500E > DAT Transfer: Tascam DA-20 MK II > Audiophile 2496 > Sound Forge 7 > CD Wave > Flac Level 8 Transfer by: Mike Vescovo (shackaholic_AT_gmail, 11/26/04) Disc One/Set One: 1.'Stichomythia' 2. Improv > 3. Basso Profondo > 4. Improv 5. Big Time 6. Cape Verdean Blues Disc Two/Set Two: 01. Improv* > 02. Combustication > 03. Start/Stop 04. Latin Shuffle >Bass Solo 05. Coconut Boogaloo 06. Just Like I Pictured It 07. Sugarcraft 08. No Ke Ano Ahiahi 09. This Here** 10. Night Marchers Encore: 11. Chubb Sub * w/ Medeski on house pipe organ (Billy: "You saw it here first.") Show dedicated to the memory of Samurai Celestial ** Bobby Timmons song
Joe Breault (2/0) cdr / 2 View  
Notes: Source: SBD + Schoeps MK4v + CMC64 + Earthworks TC30K > Sonosax PR-4 > Apogee A/D500E > DAT Transfer: Tascam DA-20 MK II > Audiophile 2496 > Sound Forge 7 > CD Wave > Flac Level 8 Transfer by: Mike Vescovo (shackaholic_AT_gmail, 11/26/04) Disc One/Set One: 1.'Stichomythia' 2. Improv > 3. Basso Profondo > 4. Improv 5. Big Time 6. Cape Verdean Blues Disc Two/Set Two: 01. Improv* > 02. Combustication > 03. Start/Stop 04. Latin Shuffle >Bass Solo 05. Coconut Boogaloo 06. Just Like I Pictured It 07. Sugarcraft 08. No Ke Ano Ahiahi 09. This Here** 10. Night Marchers Encore: 11. Chubb Sub * w/ Medeski on house pipe organ (Billy: "You saw it here first.") Show dedicated to the memory of Samurai Celestial ** Bobby Timmons song
BashoPoem (2/0) CD-R / 2 A+ A+ View  
Brent Wallace (2/5) / 2 A View  
Notes: encore is on disc one, end of disc one has some spuratic digi-scratches otherwise a fantastic sounding show
Paul Hofferkamp (2/4.7) CDR / 2 View 26956 SBD + Schoeps MK4v + CMC6 + Earthworks TC30K > Sonosax PR-4 > Apogee A/D500E > DAT;...
Ben (2/5) 1 Flac / 2 View 26956 SBD + Schoeps MK4v + CMC6 + Earthworks TC30K > Sonosax PR-4 >Apogee A/D500E > DAT
Bob Wall (2/0) CDR / 2 View  
brett garvey (1/5) FLAC / 2 A View 26956 SBD + Schoeps MK4v + CMC6 + Earthworks TC30K > Sonosax PR-4 > Apogee A/D500E > DAT; Transfer:...
Notes: mmw1997 5 of 5
LossLess Legs (1/0) CDR / 2 View 26956 SBD + Schoeps MK4v + CMC6 + Earthworks TC30K > Sonosax PR-4 > Apogee A/D500E > DAT
Notes: 1/14/2007 - Shacklyn75
Tim (1/0) CDR / 2 View   SBD + Schoeps MK4v + CMC6 + Earthworks TC30K > Sonosax PR-4 >
David Backus (1/5) DVD+R/FLAC / 1 View 26956 Matrix
Jeff (1/5) FLAC / 1 View 26956 SBD + Schoeps MK4v + CMC6 + Earthworks TC30K > Sonosax PR-4 >
Notes: AT46 Medeski Martin & Wood December 6, 1997 Tennessee Theater Knoxville, TN Source: SBD + Schoeps MK4v + CMC6 + Earthworks TC30K > Sonosax PR-4 > Apogee A/D500E > DAT Transfer: Tascam DA-20 MK II > Audiophile 2496 > Sound Forge 7 > CD Wave > Flac Level 8 Transfer by: Mike Vescovo (shackaholic_AT_gmail, 11/26/04) Disc One/Set One: 1.'Stichomythia' 2. Improv > 3. Basso Profondo > 4. Improv 5. Big Time 6. Cape Verdean Blues Disc Two/Set Two: 01. Improv* > 02. Combustication > 03. Start/Stop 04. Latin Shuffle >Bass Solo 05. Coconut Boogaloo 06. Just Like I Pictured It 07. Sugarcraft 08. No Ke Ano Ahiahi 09. This Here** 10. Night Marchers Encore: 11. Chubb Sub * w/ Medeski on house pipe organ (Billy: "You saw it here first.") Show dedicated to the memory of Samurai Celestial ** Bobby Timmons song Size: 701 MB length expanded size cdr WAVE problems filename 0:51.16 9034076 --- -- ---xx mmw1997-12-06d1t01.flac 19:59.05 211515404 --- -- ---xx mmw1997-12-06d1t02.flac 8:28.61 89754716 --- -- ---xx mmw1997-12-06d1t03.flac 8:01.70 85013084 --- -- ---xx mmw1997-12-06d1t04.flac 16:31.46 174920636 --- -- ---xx mmw1997-12-06d1t05.flac 6:13.20 65844284 --- -- ---xx mmw1997-12-06d1t06.flac 5:19.59 56410412 --- -- ---xx mmw1997-12-06d2t01.flac 1:56.18 20504780 --- -- ---xx mmw1997-12-06d2t02.flac 6:51.23 72554540 --- -- ---xx mmw1997-12-06d2t03.flac 13:43.23 145231340 --- -- ---xx mmw1997-12-06d2t04.flac 8:40.62 91873868 --- -- ---xx mmw1997-12-06d2t05.flac 9:20.47 98894588 --- -- ---xx mmw1997-12-06d2t06.flac 5:37.36 59531516 --- -- ---xx mmw1997-12-06d2t07.flac 5:33.72 58910588 --- -- ---xx mmw1997-12-06d2t08.flac 6:53.29 72921452 --- -- ---xx mmw1997-12-06d2t09.flac 5:21.01 56626796 --- -- ---xx mmw1997-12-06d2t10.flac 9:53.68 104765180 --- -- ---xx mmw1997-12-06d2t11.flac 139:17.56 1406.01 MB (totals for 17 files, 0.4990 overall compression ratio) mmw1997-12-06d1t01.flac:b418916330109065f3bc18d0cfecb905 mmw1997-12-06d1t02.flac:627af5b2597dc310a6939add9e64f776 mmw1997-12-06d1t03.flac:cca5683678db4f9121a2b89e7e7e571c mmw1997-12-06d1t04.flac:bd04e8bb54dffa861ded5987d8f7296a mmw1997-12-06d1t05.flac:769c860d76f0a6a7210f611257e7ac41 mmw1997-12-06d1t06.flac:01821490e69fc257551de2b6f7558dc7 mmw1997-12-06d2t01.flac:9f10cc4ec183008270f2567930675e40 mmw1997-12-06d2t02.flac:a9f92171ea53f1427c07f750394dad62 mmw1997-12-06d2t03.flac:b1f2ea00dd24c931c30cae2b69090cc2 mmw1997-12-06d2t04.flac:2ac1c6929b6542d0052107090c4ad08e mmw1997-12-06d2t05.flac:abbaafcedc6353ceadffd4802849f9f7 mmw1997-12-06d2t06.flac:66a79b8b88ecc46f1bdd369da5ad3c88 mmw1997-12-06d2t07.flac:34e007d68b714b7f98991ab980cd0ea5 mmw1997-12-06d2t08.flac:7f29093399f5e10a0323942a5148be01 mmw1997-12-06d2t09.flac:fd8ea94192dfb7c069a367a7bec0c5fe mmw1997-12-06d2t10.flac:c273ddf024b47c4fc3033d6671f84850 mmw1997-12-06d2t11.flac:90d7c91b285fbaab18dc9d17056489cd
Sigmund BoPs (1/5) CD-R / 2 View 26956
denance (1/4.9) / 0 View 26956
tone (1/5) / 2 View   SBD
Justin Liew (1/0) aac / 3 B+ B+ View  
Mike Williams (1/4.5) flac16 / 0 View 26956
Dan Nelson (1/0) CDR / 2 View   SBD Matrix
Robert Meme (1/1) shn/wav / 2 View  
Notes: SBD
Pete Rocco (1/0) / 2 View   SBD + Schoeps (piano) + pair Earthworks TC40K on-stage -> Sonosax PR-4 -> Apogee AD-500E
Notes: has clicks towards the end of both discs...:(
duggy (0/4.1) SHN / 1 A A View   THE TAPES MADE ARE A MATRIX THE SBD WAS MIXED WITH A PAIR OF SCHOEPS MK4V+CMC6 PLACED IN FRONT OF...
duggy (0/4.1) FLAC DVD / 1 View 26956 SBD + Schoeps MK4v + CMC6 + Earthworks TC30K > Sonosax PR-4 > Apogee A/D500E > DAT;...
funktopu (0/0) / 0 View 26956
JohnO (0/0) HDD / 0 View  
Ken (0/5) DVD / 1 ex View 26956 SBD + schoeps mk4v/cmc6 + earthworks TC30K > sonosax PR-4 > apogee AD500e > tascam DA-P1
Rob Antes (0/4.9) cdr / 2 View  
Mike (0/0) FLAC / 2 View 26956
Dan-o (0/0) FLAC / 1 View 26956
Notes: Source: SBD + Schoeps MK4v + CMC6 + Earthworks TC30K > Sonosax PR-4 > Apogee A/D500E > DAT Transfer: Tascam DA-20 MK II > Audiophile 2496 > Sound Forge 7 > CD Wave > Flac Level 8 Transfer by: Mike Vescovo (shackaholic_AT_gmail, 11/26/04)
Brian Saxton (0/0) MP3 / 0 View