Browse Collections Artists Sources   Search Dates

Add Show    List Management    Help


Medeski Martin & Wood 05/11/96
Iron Horse Music Hall, Northampton, MA
Set I
One Set: Chinoiserie, Macha > Bubblehouse, Henduck > Dracula > Jelly Belly > Is There Anybody Here That Love My Jesus, Think, Bass Solo > Chubb Sub

Encore: Bemsha Swing/Lively Up Yourself
Set II
 
Set III
 
Comment
One Set Only
Last Changed By duggy
Sources
(32677) View Source   
flac16; Source: DSBD > DAT; Sony PCM-R500 > Audiophile 2496 > Soundforge 8 > CDWave > Flac Level 8; Taped by Steve Logan; Transfer by Mike Vescovo
Click 'Edit Show' or the 'Set I(II)(III)' or 'Comment' text to make corrections.
If this is a duplicate or incorrect entry and should be merged, use the Request Merge page.

Collectors With This Show
User (active/rating) Media / # Show Sound Details DB Source User Source
Gold Soundz (5/5) CDR / 2 View   DSBD> DAT> Sony PCM-R500> Audiophile 2496> Soundforge 8> CDWave> CDR
Holden Caulfield (5/5) flac / 1 View 32677
michael webster (5/5) cdr / 2 A+ View 32677 DSBD > DAT
thrak (5/5) flac / 2 View 32677 DSBD > DAT; Sony PCM-R500 > Audiophile 2496 > Soundforge 8 > CDWave > Flac Level 8
Brad Foster (4/4.9) FLAC / 1 View   DSBD > DAT
bruce lynd (4/0) data / 1 View 32677 DSBD > DAT
Tony Kimm (4/5) 528MBflac / 0 View   DSBD > DAT
Notes: Taped by: Steve Logan Transfer: Sony PCM-R500 > Audiophile 2496 > Soundforge 8 > CDWave > Flac Level 8 Transfer by: Mike Vescovo ([email protected]) on 2/12/06
Michael Earnshaw (4/0) AUD / 2 A View 32677
Mike Vescovo (3/4.9) FLAC / 1 A+ A+ View 32677 DSBD > DAT
Notes: on DVD 039
Kenny Joyce (3/5) FLAC / 1 View 32677
Lane Lehman (3/0) Flac / 1 View 32677 DSBD > DAT>Sony PCM-R500 > Audiophile 2496 > Soundforge 8 > CDWave > Flac Level 8
Joe Breault (2/0) flac / 1 View   DSBD > DAT
Brent Wallace (2/5) / 2 A View  
Notes: SBD
Paul Hofferkamp (2/4.7) / 2 View 32677 28
thegreatdivide6 (1/0) flac / 0 View 32677
Notes: sbd
David Sena (1/0) / 1 View 32677
brett garvey (1/5) FLAC / 2 A View 32677 DSBD > DAT; Sony PCM-R500 > Audiophile 2496 > Soundforge 8 > CDWave > Flac
Notes: mmw1996 4 of 12
Tim (1/0) CDR / 2 View   DSBD > DAT
Jeff (1/5) FLAC / 1 View 32677 DSBD > DAT
Notes: AT128 Medeski, Martin and Wood May 11, 1996 The Iron Horse Northampton, MA Source: DSBD > DAT Taped by: Steve Logan Transfer: Sony PCM-R500 > Audiophile 2496 > Soundforge 8 > CDWave > Flac Level 8 Transfer by: Mike Vescovo ([email protected]) on 2/12/06 One Set Only D1: 01. //Chinoiserie 02. Macha > 03. Bubblehouse 04. Henduck > 05. Dracula > 06. Jelly Belly > 07. Is There Anybody Here That Loves My Jesus D2: 01. Think 02. Bass Solo > Chubb Sub 03. Encore: Bemsha Swing / Lively Up Yourself Size: 528 MB mmw1996-05-11d1t01.flac:790b0945d475652107a9108d11eadbaa mmw1996-05-11d1t02.flac:299ccc50bd4f4fcb57167a3e77a230e2 mmw1996-05-11d1t03.flac:c291de2c9b02bb78af4fffa3d27b55f2 mmw1996-05-11d1t04.flac:db6cd869f6d2650b81b96390abe7611c mmw1996-05-11d1t05.flac:da27a3a03e44665905ed42e93bf66434 mmw1996-05-11d1t06.flac:e433f346b1786652b32b1c917de2cc30 mmw1996-05-11d1t07.flac:9dd7d1080f11c6127101b27d2bf76301 mmw1996-05-11d2t01.flac:22e87b49a9a0b252e64ad36da193622c mmw1996-05-11d2t02.flac:2d945efabb71c6ecc869b170c86b0864 mmw1996-05-11d2t03.flac:feea10fe7a5448daf21d098e2ab61908 length expanded size cdr WAVE problems filename 9:36.18 101648780 --- -- ---xx mmw1996-05-11d1t01.flac 6:18.41 66775676 --- -- ---xx mmw1996-05-11d1t02.flac 8:51.43 93769580 --- -- ---xx mmw1996-05-11d1t03.flac 9:32.36 100985516 --- -- ---xx mmw1996-05-11d1t04.flac 6:53.17 72893228 --- -- ---xx mmw1996-05-11d1t05.flac 13:13.61 140028716 --- -- ---xx mmw1996-05-11d1t06.flac 10:15.51 108605996 --- -- ---xx mmw1996-05-11d1t07.flac 9:59.20 105710684 --- -- ---xx mmw1996-05-11d2t01.flac 11:44.12 124213868 --- -- ---xx mmw1996-05-11d2t02.flac 8:34.38 90759020 --- -- ---xx mmw1996-05-11d2t03.flac 94:59.37 958.82 MB (totals for 10 files, 0.5509 overall compression ratio)
duggy (0/4.1) FLAC DVD / 1 View 32677 DSBD > DAT; Sony PCM-R500 > Audiophile 2496 > Soundforge 8 > CDWave > Flac Level 8
sean o'connor (0/0) dvd-r - flac / 1 View  
Notes: flac
Dan (0/0) / 0 View 32677